Таємний Агент / Unlocked (2017) 720p Ukr/Eng | Sub Eng

Нові коментарі

Нова тема   Відповісти
Автор Повідомлення
Anonymous 







2017-08-30 17:31  
Таємний Агент / Unlocked (2017) 720p Ukr/Eng | Sub Eng

Таємний Агент / Unlocked (2017) 720p Ukr/Eng | Sub Eng


Жанр: бойовик, трилер
Країна: Велика Британія



Кінокомпанія: Bloom, Czech Anglo Productions, Di Bonaventura Pictures, Lip Sync Productions, Silver Reel, SRA Productions, Unlocked Distribution
Режисер: Майкл Ептід / Michael Apted
Актори: Нумі Рапас / Noomi Rapace, Орландо Блум / Orlando Bloom, Майкл Дуглас / Michael Douglas, Тоні Коллетт / Toni Collette, Джон Малковіч / John Malkovich, Акшай Кумар / Akshay Kumar, Еделайо Едедайо / Adelayo Adedayo, Філіп Броді / Philip Brodie, Тосін Коул / Tosin Cole, Браян Каспе / Brian Caspe та інші

Сюжет:
Терористична група планує масштабну біологічну атаку на Лондон. Їм вдається захопити агента ЦРУ і отримати доступ до секретної інформації, яка ставить під загрозу життя всіх жителів мегаполісу. Щоб запобігти трагедії, команда досвідчених агентів продумує план звільнення колеги та порятунку Лондона.
Офіційний український трейлер:

Рейтинг MPAA: R - особам до 17 років обов'язкова присутність батьків або дорослого опікуна
Вікова категорія: 16+
Тривалість: 01:38:22
Якість: 720p
Відео:
кодек:
розмір кадру: 1280 х 536
бітрейт: 5000 кб/с

Аудіо # 1:
мова: українська
переклад: професійний дубльований | ААА-sound
кодек: 2.0
бітрейт: 192 кб/с
Інформація про дубляж
Переклад: Юлія Когут
Режисер дубляжу: Олександр Єфімов
Ролі дублювали: Катерина Брайковська, Іван Розін, Дмитро Завадський, Дмитро Гаврилов, Катерина Буцька, Андрій Мостренко, Юлія Перенчук, Андрій Альохін, Андрій Федінчик, Ярослав Чорненький, Дмитро На????ський та інші.
Фільм дубльовано студією ААА-sound у 2017 році на замовлення компанії "Кіноманія".
Аудіо # 2:
мова: англійська
переклад: оригінал
кодек: 5.1
бітрейт: 640 кб/с

Субтитри # 1-3:
мова: англійська (повні, SDH, SDH Colored)
тип: програмні (м'які)
формат: *.srt

Збережено оригінальні розділи, як на Blu-ray
Info
Код:
Complete name               : Unlocked (2017) [Ukr,Eng sub.Eng] 720p [Hurtom].
Format                      :
Format version              : Version 4 / Version 2
File size                   : 4.01 GiB
Duration                    : 1 h 38 min
Overall bit rate            : 5 830 kb/s
Cover                       : Yes
Attachments                 : cover.jpg

Video
ID                          : 1
Format                      : AVC
Format/Info                 : Advanced Video Codec
Format profile              : [email protected]
Format settings, CABAC      : Yes
Format settings, RefFrames  : 12 frames
Codec ID                    : V_MPEG4/ISO/AVC
Duration                    : 1 h 38 min
Bit rate                    : 5 000 kb/s
Width                       : 1 280 pixels
Height                      : 536 pixels
Display aspect ratio        : 2.40:1
Frame rate mode             : Constant
Frame rate                  : 24.000 FPS
Color space                 : YUV
Chroma subsampling          : 4:2:0
Bit depth                   : 8 bits
Scan type                   : Progressive
Bits/(Pixel*Frame)          : 0.304
Stream size                 : 3.43 GiB (86%)
Title                       : Таємний Агент / Секретний агент / Unlocked (2017) 720p [ExKinoRay]
Writing library             : core 148 r2705 3f5ed56
Encoding settings           : cabac=1 / ref=12 / deblock=1:-3:-3 / analyse=0x3:0x133 / me=umh / subme=10 / psy=1 / psy_rd=1.05:0.05 / mixed_ref=1 / me_range=24 / chroma_me=1 / trellis=2 / 8x8dct=1 / cqm=0 / deadzone=21,11 / fast_pskip=0 / chroma_qp_offset=-3 / threads=22 / lookahead_threads=4 / sliced_threads=0 / nr=0 / decimate=0 / interlaced=0 / bluray_compat=0 / constrained_intra=0 / bframes=8 / b_pyramid=2 / b_adapt=2 / b_bias=0 / direct=3 / weightb=1 / open_gop=0 / weightp=2 / keyint=240 / keyint_min=24 / scenecut=40 / intra_refresh=0 / rc_lookahead=50 / rc=2pass / mbtree=0 / bitrate=5000 / ratetol=1.0 / qcomp=0.60 / qpmin=0 / qpmax=69 / qpstep=4 / cplxblur=20.0 / qblur=0.5 / vbv_maxrate=50000 / vbv_bufsize=62500 / nal_hrd=none / filler=0 / ip_ratio=1.40 / pb_ratio=1.30 / aq=3:0.80
Language                    : English
Default                     : Yes
Forced                      : No

Audio #1
ID                          : 2
Format                      : AC-3
Format/Info                 : Audio Coding 3
Format settings, Endianness : Big
Codec ID                    : A_AC3
Duration                    : 1 h 38 min
Bit rate mode               : Constant
Bit rate                    : 192 kb/s
Channel(s)                  : 2 channels
Channel positions           : Front: L R
Sampling rate               : 48.0 kHz
Frame rate                  : 31.250 FPS (1536 SPF)
Bit depth                   : 16 bits
Compression mode            : Lossy
Stream size                 : 135 MiB (3%)
Title                       : Dub [ААА-sound, Megogo] 2.0 192 Kbps [Hurtom - dark_inwhite]
Language                    : Ukrainian
Service kind                : Complete Main
Default                     : Yes
Forced                      : Yes

Audio #2
ID                          : 3
Format                      : AC-3
Format/Info                 : Audio Coding 3
Format settings, Endianness : Big
Codec ID                    : A_AC3
Duration                    : 1 h 38 min
Bit rate mode               : Constant
Bit rate                    : 640 kb/s
Channel(s)                  : 6 channels
Channel positions           : Front: L C R, Side: L R, LFE
Sampling rate               : 48.0 kHz
Frame rate                  : 31.250 FPS (1536 SPF)
Bit depth                   : 16 bits
Compression mode            : Lossy
Stream size                 : 450 MiB (11%)
Title                       : Original, 5.1 640 Kbps
Language                    : English
Service kind                : Complete Main
Default                     : No
Forced                      : No

Text #1
ID                          : 4
Format                      : UTF-8
Codec ID                    : S_TEXT/UTF8
Codec ID/Info               : UTF-8 Plain Text
Duration                    : 1 h 30 min
Bit rate                    : 55 b/s
Count of elements           : 1065
Stream size                 : 36.8 KiB (0%)
Title                       : Eng Full
Language                    : English
Default                     : No
Forced                      : No

Text #2
ID                          : 5
Format                      : UTF-8
Codec ID                    : S_TEXT/UTF8
Codec ID/Info               : UTF-8 Plain Text
Duration                    : 1 h 30 min
Bit rate                    : 61 b/s
Count of elements           : 1194
Stream size                 : 40.7 KiB (0%)
Title                       : Eng SDH
Language                    : English
Default                     : No
Forced                      : No

Text #3
ID                          : 6
Format                      : UTF-8
Codec ID                    : S_TEXT/UTF8
Codec ID/Info               : UTF-8 Plain Text
Duration                    : 1 h 30 min
Bit rate                    : 76 b/s
Count of elements           : 1194
Stream size                 : 50.7 KiB (0%)
Title                       : Eng SDH Colored
Language                    : English
Default                     : No
Forced                      : No

Menu
00:00:00.000                : en:00:00:00.000
00:07:36.583                : en:00:07:36.583
00:16:21.583                : en:00:16:21.583
00:23:34.417                : en:00:23:34.417
00:31:06.250                : en:00:31:06.250
00:38:49.125                : en:00:38:49.125
00:47:00.500                : en:00:47:00.500
00:53:55.333                : en:00:53:55.333
01:03:15.208                : en:01:03:15.208
01:09:50.250                : en:01:09:50.250
01:17:26.667                : en:01:17:26.667
01:24:01.542                : en:01:24:01.542


Джерело: &
Подяка за український звук п. dark_inwhite


 Трекер:    Зареєстрований   

Завантажити / скачати фільм українською



відео для новачків



 Зареєстрований:   2017-08-30 19:31
 Розмір:   4.01 GB 
 Оцінка фільму:   8/10 (Голосів: 78)
   
Інші релізи
   Таємний Агент / Unlocked (2017) 1080p H.265 Ukr/Eng | Sub Eng -Star-Lord-  4 / 0   4.62 GB   2019-07-06 10:33 
   Таємний Агент / Unlocked (2017) Remux 1080p Ukr/Eng | Sub Eng Devil_my_cry  1 / 0   24.57 GB   2018-04-15 09:45 
   Таємний Агент / Unlocked (2017) 1080p Ukr/Eng | Sub Eng staf777  2 / 0   9.92 GB   2018-04-03 18:22 
   Таємний Агент / Unlocked (2017) AVC Ukr/Eng | Sub Eng dark_inwhite  22 / 0   1.99 GB   2017-08-30 14:32 
   Таємний Агент / Unlocked (2017) Ukr/Eng dark_inwhite  14 / 0   1.52 GB   2017-08-30 14:31 
casper101 
VIP


З нами з: 03.12.09
Востаннє: 18.11.19
Повідомлень: 432

2017-08-31 20:39  
Розблоковано
waldi-hurtom 
VIP


З нами з: 07.10.12
Востаннє: 17.11.19
Повідомлень: 1043

2017-09-02 12:16  
Британський бойовик, де ЦРУ - суцільні провокатори-терористи. Тому й оцінка IMDB лише 6,1, американцям не подобається. Як на мене, добротний бойовик. 8 з 10. Дякую за реліз.
piotr1965 
Новенький


З нами з: 25.03.12
Востаннє: 17.11.19
Повідомлень: 3

2017-09-02 12:48  
waldi-hurtom
Звичайно, не подобається нащадкам хрестоносців, що миролюбні muslims живуть тихо і нікого не чіпають. А всі ті вантажівки на мостах і бульварах то все дії цру, яке дискредитує найбільш миролюбну спільноту на планеті.

thestorozhuk 
Свій


З нами з: 29.11.12
Востаннє: 25.09.19
Повідомлень: 51

2017-09-16 01:21  
piotr1965
Не показуй тут своє незнання історії)). Хрестоносці в основному були італійцями. Відправлялися в походи зі згоди римських Пап. Іноді участь брали французи та німці. Мусульмани теж не були й досі не є цілком мирними. Вони прийшли, а точніше завоювали землі дійсно мирних арабів, які за своїх часів вклали багато зусиль в астрономію, математику та медицину разом з біологією. Єдині війни, які є, то це через релігію, або через бажання завоювати землю. Якщо взагалі стаються війни, то це через нашу примітивність як виду. Є різні шляхи для подолання війн. Видалення всіх релігій, або видалення релігійних законів, які змушують до насильства. Залишити тільки мирне. Підвищувати інтелектуальну свідомість населення Землі. Особливо в примітивних та бідних регіонах. Тоді можливо буде менше воєн та терористів хоча б через релігію. Бо тероризм на основі релігії збільшує шанси на негативне ставлення до неї. Нажаль примітивні люди цього не розуміють, що вони самі роблять негативне відношення до своєї віри. А є ще люди, які просто маскуються релігією. Тож краще коли релігії зникнуть, як знак нашого примітивізму.

mps_andruxa 
Новенький


З нами з: 17.10.12
Востаннє: 09.11.19
Повідомлень: 4

2017-10-01 20:53  
thestorozhuk
Релігія допомагає притормозити розвиток фемінізму і т.д.. Прочитайте книгу: "Женщина, учебник для мужчин".

bohdk 
Відео Гуртом - субтитрування
Відео Гуртом - субтитрування


З нами з: 23.10.09
Востаннє: 18.11.19
Повідомлень: 681

2017-10-04 22:51  
Ого! Нарешті ми добралися до суті справи. Як приємно, що є такі знавці, які враз розкладуть все по поличках. А людство он страждає...
thestorozhuk 
Свій


З нами з: 29.11.12
Востаннє: 25.09.19
Повідомлень: 51

2017-10-08 10:44  
mps_andruxa
Причому тут фемінізм і релігія?)) Не приплітай сюди це)).

Додано через 1 хвилину 13 секунд:

bohdk
Ну... я розказав те що знаю по історії. Інші "розумники" хай також пишуть по факту, а не придумують щось через своє незнання. Трішки добавив своїх субьективних думок. А що тут такого? Я агностик. Тому такі думки. Ось і все.

Magribinus 
Новенький


З нами з: 22.02.15
Востаннє: 26.09.19
Повідомлень: 1

2017-10-29 12:44  
thestorozhuk
Вибачте за офтоп, але
довіру до Вашого так званого "знання історії" підриває оця цитата
thestorozhuk написано:
Хрестоносці в основному були італійцями. Відправлялися в походи зі згоди римських Пап. Іноді участь брали французи та німці. Мусульмани теж не були й досі не є цілком мирними. Вони прийшли, а точніше завоювали землі дійсно мирних арабів, які за своїх часів вклали багато зусиль в астрономію, математику та медицину разом з біологією.

З чого ви взяли про походження хрестоносців (що вони італійці)? Цікаво в такому разі, що ж ви читали про історію хрестових походів, що зробили такі висновки?
Порівняння мусульман і арабів після цього вже не так шокує. Особливо про "мирність" арабів. Почитайте про арабські завоювання хоча б, і про держави, що утворилися після занепаду т.з. Арабського халифату. І що, араби не були тоді мусульманами? Не смішіть мене.

thestorozhuk 
Свій


З нами з: 29.11.12
Востаннє: 25.09.19
Повідомлень: 51

2017-10-29 19:25  
Magribinus
Що вам відповісти, якщо зовсім нічого не зрозуміли? Ви не розумієте, що у стародавніх арабів не було ще тоді мусульманської віри. Вона прийшла пізніше. Тоді ж араби й стали "мусульманами" з так званої історії з пророком Мухамедом. Такі часи були. Я в курсі арабських завоювань. Араби славилися як безстрашні і жорстокі воїни. Древні римляни нерідко наймали їх на службу в своїх військах. Але не плутайте іслам з язичницькою релігією древніх арабів. Я мав на увазі, що релігія древніх арабів не була такою радикальною, як іслам. Вам потрібно все розжовувати?))

В тексті в мене сказано, що в хрестових походах брали участь ще й германці та французи. Що не так? Ви не знаєте історії хрестових походів? Що вони керувалися з Риму? Що в основному це були італійці? Ну називайте їх римлянами. Що від цього зміниться?)) Тоді наберіть хрестові походи в гуглі і почитайте. Шокує його щось.

Ваш часовий пояс: GMT + 2 Години

Нова тема   Відповісти