Динозаври-залізяки / Dinotrux (Сезон 1-3) (2016) 1080p Ukr/Eng

Нові коментарі

Нова тема   Відповісти
Останній раз роздавалося Scabiosa (2021-04-19)
Автор Повідомлення
sergiyko.5 
Забанено
Забанено


З нами з: 25.02.16
Востаннє: 29.10.20
Повідомлень: 3648

2017-08-30 12:47  
Динозаври-залізяки / Dinotrux (Сезон 1-3) (2016) 1080p Ukr/Eng

Динозаври-залізяки / Dinotrux (Сезон 1-3) (2016) 1080p Ukr/Eng

Жанр: дитячий, пригоди
Країна: США
Кінокомпанія: DreamWorks Animation Television

Сюжет:
Тварини, як Кронозавр, Гарбагемон і Тиранозавр (на половину динозаври на половину
вантажівки) живуть у вигадану доісторичну епоху.




Тривалість: 00:23:07 серія, загалом 10+13+16 серій
Якість:

Відео: кодек: розмір кадру: 1920 х 1080 бітрейт: 3700 кб/с | Netflix |
Аудіо #1: мова: українська переклад: багатоголосий закадровий кодек: 2.0 бітрейт: 192 кб/с
Аудіо #2: мова: англійська переклад: оригінал кодек: 5.1 бітрейт: 384 кб/с
Джерело озвучення:

Додаткова інформація:
1. Серія 12 другого сезону немає озучення з 03:36-04:08.
2. Відео серії 13 другого сезону має розмір кадру 1280х720
Перелік серій

Сезон 1:
01 Тай і Крутик
02 Брухтодахтелі
03 Гараж
04 Брухтоцираптори
05 Яма
06 Смітюх
07 Пустеля
08 Тортилії
09 Пісчана буря
10 Фальшива ущелина

Сезон 2:
01 Новий хвіст
02 Отто
03 Ніч
04 Котолодони
05 Лігво
06 Таран
07 Гоночний трек
08 Клеіфозаври
09 Ланцюгудав
10 Пустельні Брухтоцираптори
11 Вода
12 Вітер
13 Блискавка

Сезон 3:
01 Slide
02 Drillasaurs
03 Volcano
04 Sawmetradon
05 Speed
06 Flynt
07 Wings
08 Slamtools
09 Blayde
10 Battle
11 Cementasaurs
12 Eggs
13 Pounder
14 Shockarachnids
15 Scaretrux
16 Magnet Mountain
Інформація про файл:
General
Unique ID : 248729123860642693375044572394198978768 (0xBB1F7C9CDB48509AB6D6C338F7A0D0D0)
Complete name : E:\MULTFILMS\DinoTrux 1080p \DinoTrux S02 1080p \Dinotrux.S02E03.Night.1080p..Ukr.Eng.
Format :
Format version : Version 4 / Version 2
File size : 702 MiB
Duration : 23 min 6 s
Overall bit rate mode : Variable
Overall bit rate : 4 245 kb/s
Movie name : Dinotrux S02 1080p by sergiyko
Encoded date : UTC 2017-08-30 09:19:06
Writing application : v15.0.0 ('Duel with the Devil') 64-bit
Writing library : libebml v1.3.5 + v1.4.5
Cover : Yes
Attachments : cover.jpeg

Video
ID : 1
Format : AVC
Format/Info : Advanced Video Codec
Format profile : [email protected]
Format settings, CABAC : Yes
Format settings, RefFrames : 3 frames
Codec ID : V_MPEG4/ISO/AVC
Duration : 23 min 6 s
Bit rate mode : Variable
Bit rate : 3 666 kb/s
Maximum bit rate : 5 475 kb/s
Width : 1 920 pixels
Height : 1 080 pixels
Display aspect ratio : 16:9
Frame rate mode : Constant
Frame rate : 23.976 (23976/1000) FPS
Original frame rate : 23.976 (24000/1001) FPS
Color space : YUV
Chroma subsampling : 4:2:0
Bit depth : 8 bits
Scan type : Progressive
Bits/(Pixel*Frame) : 0.074
Stream size : 606 MiB (86%)
Title : S02E03 Night
Language : English
Default : Yes
Forced : No

Audio #1
ID : 2
Format : AC-3
Format/Info : Audio Coding 3
Format settings, Endianness : Big
Codec ID : A_AC3
Duration : 23 min 6 s
Bit rate mode : Constant
Bit rate : 192 kb/s
Channel(s) : 2 channels
Channel positions : Front: L R
Sampling rate : 48.0 kHz
Frame rate : 31.250 FPS (1536 SPF)
Bit depth : 16 bits
Compression mode : Lossy
Delay relative to video : -200 ms
Stream size : 31.7 MiB (5%)
Title : MOV | QTV
Language : Ukrainian
Service kind : Complete Main
Default : Yes
Forced : Yes

Audio #2
ID : 3
Format : AC-3
Format/Info : Audio Coding 3
Format settings, Endianness : Big
Codec ID : A_AC3
Duration : 23 min 6 s
Bit rate mode : Constant
Bit rate : 384 kb/s
Channel(s) : 6 channels
Channel positions : Front: L C R, Side: L R, LFE
Sampling rate : 48.0 kHz
Frame rate : 31.250 FPS (1536 SPF)
Bit depth : 16 bits
Compression mode : Lossy
Stream size : 63.5 MiB (9%)
Title : Original
Language : English
Service kind : Complete Main
Default : No
Forced : No
Скріншоти:


Автор записів та ріпів: sergiyko



Бронзовий реліз (на рейтинг впливає 75% завантаженого)
 Трекер:    Зареєстрований   

Завантажити / скачати мультфільм українською



відео для новачків



 Зареєстрований:   2018-08-27 11:39
 Розмір:   30.74 GB 
 Оцінка мультсеріалу:   9.7/10 (Голосів: 11)
   
sergiyko.5 
Забанено
Забанено


З нами з: 25.02.16
Востаннє: 29.10.20
Повідомлень: 3648

2018-08-27 11:39  
Торент оновлено. Додав перший сезон.
Vysad 
Новенький


З нами з: 08.03.13
Востаннє: 07.04.21
Повідомлень: 1

2019-02-07 15:12  
Щось чути по 4 і 5 сезонах?
andros507 
VIP


З нами з: 15.09.10
Востаннє: 18.04.21
Повідомлень: 327

2019-02-07 16:13  
Vysad написано:
Щось чути по 4 і 5 сезонах?

QTV мертвий. Жоден інший телеканал не виявив бажання.

Ваш часовий пояс: GMT + 2 Години

Нова тема   Відповісти