Містер Мерседес (Сезон 1) / Mr. Mercedes (Season 1) (2017) 720p Eng | sub Ukr

Нові коментарі

Нова тема   Відповісти
Сторінка:  1, 2  наступна
Автор Повідомлення
pskrm 
Свій


З нами з: 03.03.17
Востаннє: 31.01.20
Повідомлень: 113

2017-08-28 09:50  
Містер Мерседес (Сезон 1) / Mr. Mercedes (Season 1) (2017) 720p Eng | sub Ukr

Містер Мерседес (Сезон 1) / Mr. Mercedes (Season 1) (2017) 720p Eng | sub Ukr


Жанр: трилер
Країна: США



Кінокомпанія: Audience Network
Режисер: Джек Бендер
Актори: Брендан Ґлісон, Гаррі Тредевей, Келлі Лінч

Сюжет:
Полісмен Білл Годжес вийшов на пенсію, але спогади про нерозкритий злочин не дають йому спокою. І одного дня він отримує листа від незнайомця. Це послання саме того злочинця, який, викравши Мерседес кілька років тому, вбив і покалічив десятки людей. Тоді Годжес не зміг вийти на його слід. Ця справа так і залишилася нерозкритою, і докори сумління не давали йому спати. А тепер убивця пише, що наступного разу жертв буде більше. Набагато більше! Білл, забувши про заслужений відпочинок, спокій і безпеку, повертається на роботу. Може, саме цього і домагався злочинець? Але навіщо?...


Тривалість: 49 ÷ 57 хв. x 10 серій
Перелік серій

01. Pilot / Пілот
02. On Your Mark / Точно в ціль
03. Cloudy, With a Chance of Mayhem / Хмарно, можливе свавілля
04. Gods Who Fall / Боги у вигнанні
05. The Suicide Hour / Година самогубства
06. People in the Rain / Люди під зливою
07. Willow Lake / Озеро Віллоу
08. From the Ashes / З попелу
09. Ice Cream, You Scream, We All Scream / Я кричу, ти кричиш, ми усі кричимо
10. Jibber-Jibber Chicken Dinner / Торохтуха, торохтуха, натовкла злодюзі вуха
Якість: (ріпи з 'ів)
Відео:
кодек:
розмір кадру: 1280 х 720
бітрейт: 980÷1725 кб/с
кадри/сек: 1-а серія: 30 fps, решта: 23,976 fps

Аудіо:
мова: англійська
переклад: оригінал
кодек: 2.0
бітрейт: 172 кб/с

Субтитри:
мова: українська
тип: програмні (м'які)
формат: *.srt

Субтитри :власний переклад
Info

General
Complete name : MrMercedes.s01e01.mp4
Format : MPEG-4
Format profile : Base Media
Codec ID : isom (isom/iso2/avc1/mp41)
File size : 723 MiB
Duration : 57 min 3 s
Overall bit rate mode : Variable
Overall bit rate : 1 771 kb/s
Movie name : Mr.Mercedes.S01E01.Pilot.720p.AUDC..AAC2.0.-GPRC
Writing application : Lavf56.40.101

Video
ID : 1
Format : AVC
Format/Info : Advanced Video Codec
Format profile : [email protected]
Format settings, CABAC : Yes
Format settings, RefFrames : 4 frames
Codec ID : avc1
Codec ID/Info : Advanced Video Coding
Duration : 57 min 3 s
Bit rate : 1 589 kb/s
Width : 1 280 pixels
Height : 720 pixels
Display aspect ratio : 16:9
Frame rate mode : Variable
Frame rate : 30.000 FPS
Minimum frame rate : 17.544 FPS
Maximum frame rate : 30.303 FPS
Color space : YUV
Chroma subsampling : 4:2:0
Bit depth : 8 bits
Scan type : Progressive
Bits/(Pixel*Frame) : 0.057
Stream size : 649 MiB (90%)
Writing library : core 148 r2643 5c65704
Encoding settings : cabac=1 / ref=1 / deblock=1:0:0 / analyse=0x1:0x111 / me=hex / subme=2 / psy=1 / psy_rd=1,00:0,00 / mixed_ref=0 / me_range=16 / chroma_me=1 / trellis=0 / 8x8dct=0 / cqm=0 / deadzone=21,11 / fast_pskip=1 / chroma_qp_offset=0 / threads=3 / lookahead_threads=1 / sliced_threads=0 / nr=0 / decimate=1 / interlaced=0 / bluray_compat=0 / constrained_intra=0 / bframes=3 / b_pyramid=2 / b_adapt=1 / b_bias=0 / direct=1 / weightb=1 / open_gop=0 / weightp=1 / keyint=300 / keyint_min=30 / scenecut=40 / intra_refresh=0 / rc_lookahead=10 / rc=crf / mbtree=1 / crf=20,0 / qcomp=0,60 / qpmin=0 / qpmax=69 / qpstep=4 / vbv_maxrate=20000 / vbv_bufsize=25000 / crf_max=0,0 / nal_hrd=none / filler=0 / ip_ratio=1,40 / aq=1:1,00
Color range : Limited
Color primaries : BT.709
Transfer characteristics : BT.709
Matrix coefficients : BT.709

Audio
ID : 2
Format :
Format/Info : Advanced Audio Codec
Format profile : LC
Codec ID : 40
Duration : 57 min 3 s
Duration_LastFrame : 23 ms
Bit rate mode : Constant
Bit rate : 172 kb/s
Channel(s) : 2 channels
Channel positions : Front: L R
Sampling rate : 44.1 kHz
Frame rate : 43.066 FPS (1024 SPF)
Compression mode : Lossy
Stream size : 70.0 MiB (10%)
Language : English
Default : Yes
Alternate group : 1

Text
ID : 3
Format : Timed Text
Muxing mode : sbtl
Codec ID : tx3g
Duration : 57 min 3 s
Bit rate mode : Variable
Bit rate : 87 b/s
Stream size : 36.2 KiB (0%)
Language : Ukrainian
Default : Yes
Forced : No
Alternate group : 3

General
Complete name : 10.MrMercedes.s01e10.mp4
Format : MPEG-4
Format profile : Base Media
Codec ID : isom (isom/iso2/avc1/mp41)
File size : 521 MiB
Duration : 54 min 29 s
Overall bit rate mode : Variable
Overall bit rate : 1 338 kb/s
Movie name : PSArips.com | Mr.Mercedes.S01E10.Jibber-Jibber.Chicken.Dinner.720p..2CH.x2
Writing application : Lavf56.40.101

Video
ID : 1
Format : AVC
Format/Info : Advanced Video Codec
Format profile : [email protected]
Format settings : CABAC / 4 Ref Frames
Format settings, CABAC : Yes
Format settings, Reference : 4 frames
Codec ID : avc1
Codec ID/Info : Advanced Video Coding
Duration : 54 min 9 s
Bit rate : 1 169 kb/s
Width : 1 280 pixels
Height : 720 pixels
Display aspect ratio : 16:9
Frame rate mode : Variable
Frame rate : 23.976 (23976/1000) FPS
Minimum frame rate : 23.810 FPS
Maximum frame rate : 52.632 FPS
Color space : YUV
Chroma subsampling : 4:2:0
Bit depth : 8 bits
Scan type : Progressive
Bits/(Pixel*Frame) : 0.053
Stream size : 453 MiB (87%)
Writing library : core 148 r2643 5c65704
Encoding settings : cabac=1 / ref=1 / deblock=1:0:0 / analyse=0x1:0x111 / me=hex / subme=2 / psy=1 / psy_rd=1.00:0.00 / mixed_ref=0 / me_range=16 / chroma_me=1 / trellis=0 / 8x8dct=0 / cqm=0 / deadzone=21,11 / fast_pskip=1 / chroma_qp_offset=0 / threads=3 / lookahead_threads=1 / sliced_threads=0 / nr=0 / decimate=1 / interlaced=0 / bluray_compat=0 / constrained_intra=0 / bframes=3 / b_pyramid=2 / b_adapt=1 / b_bias=0 / direct=1 / weightb=1 / open_gop=0 / weightp=1 / keyint=240 / keyint_min=24 / scenecut=40 / intra_refresh=0 / rc_lookahead=10 / rc=crf / mbtree=1 / crf=20.0 / qcomp=0.60 / qpmin=0 / qpmax=69 / qpstep=4 / vbv_maxrate=20000 / vbv_bufsize=25000 / crf_max=0.0 / nal_hrd=none / filler=0 / ip_ratio=1.40 / aq=1:1.00
Color range : Limited
Color primaries : BT.709
Transfer characteristics : BT.709
Matrix coefficients : BT.709
Codec configuration box : avcC

Audio
ID : 2
Format : LC
Format/Info : Advanced Audio Codec Low Complexity
Codec ID : mp4a-40-2
Duration : 54 min 29 s
Duration_LastFrame : 21 ms
Bit rate mode : Constant
Bit rate : 170 kb/s
Channel(s) : 2 channels
Channel layout : L R
Sampling rate : 48.0 kHz
Frame rate : 46.875 FPS (1024 SPF)
Compression mode : Lossy
Stream size : 66.1 MiB (13%)
Default : Yes
Alternate group : 1

Text
ID : 3
Format : Timed Text
Muxing mode : sbtl
Codec ID : tx3g
Duration : 54 min 29 s
Bit rate mode : Variable
Bit rate : 70 b/s
Stream size : 27.8 KiB (0%)
Language : Ukrainian
Default : Yes
Forced : No
Alternate group : 3
Скріншоти


Джерело:
Особиста оцінка: 8 - мені сподобалося



Золотий реліз (завантажене не впливає на рейтинг)
 Трекер:    Зареєстрований   

Завантажити / скачати серіал українською



відео для новачків



 Зареєстрований:   2017-12-05 07:48
 Розмір:   5.57 GB 
 Оцінка серіалу:   9.5/10 (Голосів: 44)
   
leicheman 
Відео Гуртом - фільмокрай
Відео Гуртом - фільмокрай


З нами з: 03.07.14
Востаннє: 28.02.20
Повідомлень: 4475

2017-08-28 11:13  
дякую за працю
але спитаю знов, ну чого ви берете таке калічне 720р ?
якщо хочте місце зберегти то краще звичайний вебдл беріть у авц.

_hellisa 
Свій


З нами з: 26.02.17
Востаннє: 16.02.20
Повідомлень: 126

2017-08-28 11:22  
leicheman
Останнім часом багато пошкодженого відео у Бухті (з Імлою і досі не знаємо що робити), не сприймається або Aegisubом, який би не був формат, або програмою, яка додає субтитри. Тому беремо вже яке є 720 (1080, на жаль, не тягне наше залізо). Можливо, коли вийде цілий сезон, оновлять там відео, то і ми одразу замінемо.

leicheman 
Відео Гуртом - фільмокрай
Відео Гуртом - фільмокрай


З нами з: 03.07.14
Востаннє: 28.02.20
Повідомлень: 4475

2017-08-28 11:25  
_hellisa
я вам пораджу сайт
тут посилання на сайт
rarbg.to
там завжди нові серіали у багато варіантах якості.

_hellisa 
Свій


З нами з: 26.02.17
Востаннє: 16.02.20
Повідомлень: 126

2017-08-28 11:28  
leicheman
Велике дякую, спробуємо.

_hellisa 
Свій


З нами з: 26.02.17
Востаннє: 16.02.20
Повідомлень: 126

2017-08-31 21:24  
Реліз оновлено!

Додано 2-гу серію.

Приємного перегляду!

Aljaxa 
Новенький


З нами з: 25.12.12
Востаннє: 23.02.20
Повідомлень: 3

2017-08-31 21:28  
Доброго дня! Хто знає, чи буде переклад?
_hellisa 
Свій


З нами з: 26.02.17
Востаннє: 16.02.20
Повідомлень: 126

2017-08-31 21:30  
Aljaxa

Доброго дня. Ви маєте на увазі озвучку?

st_78 
VIP


З нами з: 18.11.16
Востаннє: 27.02.20
Повідомлень: 1213

2017-08-31 21:35  
Aljaxa, голосування тут.
M-564 
Частий відвідувач


З нами з: 18.07.11
Востаннє: 27.02.20
Повідомлень: 28

2017-09-30 13:36  
А коли веж намічається виставити решта серій?
_hellisa 
Свій


З нами з: 26.02.17
Востаннє: 16.02.20
Повідомлень: 126

2017-09-30 14:25  
M-564
Третя серія буде у пн-вт, інші перекладаються.

_hellisa 
Свій


З нами з: 26.02.17
Востаннє: 16.02.20
Повідомлень: 126

2017-10-03 07:03  
Реліз оновлено!

Додано 3-тю серію.

zhman 
Поважний учасник


З нами з: 21.12.14
Востаннє: 24.02.20
Повідомлень: 232

2017-10-12 18:32  
коли чекати продовження і чи воно буде взагалі?
_hellisa 
Свій


З нами з: 26.02.17
Востаннє: 16.02.20
Повідомлень: 126

2017-10-12 19:05  
zhman
Звісно буде! Четверта серія на редагуванні, наступні перекладаються.

zhman 
Поважний учасник


З нами з: 21.12.14
Востаннє: 24.02.20
Повідомлень: 232

2017-10-12 21:38  
_hellisa
це добре

pskrm 
Свій


З нами з: 03.03.17
Востаннє: 31.01.20
Повідомлень: 113

2017-10-16 10:56  
Реліз оновлено!

Додано 4-ту серію.

pskrm 
Свій


З нами з: 03.03.17
Востаннє: 31.01.20
Повідомлень: 113

2017-10-26 07:40  
Реліз оновлено!

Додано 5-ту серію.

pskrm 
Свій


З нами з: 03.03.17
Востаннє: 31.01.20
Повідомлень: 113

2017-11-06 20:52  
Реліз оновлено!

Додано 6-ту серію.

_hellisa 
Свій


З нами з: 26.02.17
Востаннє: 16.02.20
Повідомлень: 126

2017-11-06 21:52  
Допомогти з перекладом останніх 3 серій можна за посиланням.
rusl 
Новенький


З нами з: 01.03.12
Востаннє: 27.02.20
Повідомлень: 8

2017-11-15 12:46  
А де субтитри?
_hellisa 
Свій


З нами з: 26.02.17
Востаннє: 16.02.20
Повідомлень: 126

2017-11-15 13:15  
rusl
Субтитри м'які, треба вмикати у плеєрі.

rusl 
Новенький


З нами з: 01.03.12
Востаннє: 27.02.20
Повідомлень: 8

2017-11-15 14:53  
Значить мій плеєр їх не бачить)
_hellisa 
Свій


З нами з: 26.02.17
Востаннє: 16.02.20
Повідомлень: 126

2017-11-15 14:56  
rusl
спробуйте завантажити KMPlayer або VLC, у них легко можна перемикатися між субтитрами та доріжками.

pskrm 
Свій


З нами з: 03.03.17
Востаннє: 31.01.20
Повідомлень: 113

2017-11-17 07:27  
Реліз оновлено!

Додано 7-8 серії.

_hellisa 
Свій


З нами з: 26.02.17
Востаннє: 16.02.20
Повідомлень: 126

2017-11-29 08:31  
Реліз оновлено!

Додано 9-ту серію.

vsenkiv 
Новенький


З нами з: 08.10.15
Востаннє: 26.02.20
Повідомлень: 10

2017-11-29 12:09  
На руттрекері є із рус-озвученням. Качати даний реліз не бачу сенсу
_hellisa 
Свій


З нами з: 26.02.17
Востаннє: 16.02.20
Повідомлень: 126

2017-11-29 12:23  
vsenkiv
За Вашою логікою, існування Толоки, ресурсу, який сприяє розвитку українського перекладу, локалізації, субтитрування та озвучки/дубляжу є безглуздим, оскільки існує рутрекер, російські студії, та й в принципі, нащо треба українська мова, якщо є російська. Що ж ви тут робите?

pskrm 
Свій


З нами з: 03.03.17
Востаннє: 31.01.20
Повідомлень: 113

2017-12-05 07:48  
Реліз оновлено!

Додано 10-ту серію.

_hellisa 
Свій


З нами з: 26.02.17
Востаннє: 16.02.20
Повідомлень: 126

2017-12-05 08:04  
Перший сезон повністю.

Дякуємо, що дивитися нас!

З повагою, команда TBA.

gashyk 
Свій


З нами з: 19.03.10
Востаннє: 23.02.20
Повідомлень: 113

2017-12-05 21:46  
-Ви подарували їй Всесвіт.
-Це просто наклейки.
-А ми тоді хто?
-Кляті ніхто...
(с)
Найбільше в серіалі сподобалась черепашка і вступний саунд)

Ваш часовий пояс: GMT + 2 Години

Нова тема   Відповісти Сторінка:  1, 2  наступна