Безодня [Розширена версія] / The Abyss (1989) [Unrated Extended Cut | Open Matte] HDTV 1080i Ukr/Eng

Нові коментарі

Нова тема   Відповісти
Автор Повідомлення
Anonymous 







2017-08-27 14:50  
Безодня [Розширена версія] / The Abyss [Unrated Extended Cut | Open Matte] (1989) HDTV 1080i Ukr/Eng

Безодня [Розширена версія] / The Abyss (1989) [Unrated Extended Cut | Open Matte] HDTV 1080i Ukr/Eng


Жанр: фантастика, бойовик, трилер, драма, пригодницький
Країна: США



Кінокомпанія: Lightstorm Entertainment, Pacific Western, Twentieth Century Fox Film Corporation
Режисер: Джеймс Кемерон
Актори: Ед Гарріс, Мері Елізабет Мастрантоніо, Майкл Б'єн, Лео Берместер та інші

Сюжет:
Атомний підводний човен «Монтана» ВМС США з ядерною зброєю на борту зазнає катастрофи на великій глибині. Міністерство флоту просить допомоги у фахівців підводної дослідної станції, що працюють неподалік від місця аварії субмарини. При підтримці чотирьох військових розвідників дослідники повинні з'ясувати можливу причину трагедії та нейтралізувати ядерні боєголовки. Але в океанській безодні їм належить зіткнутися з неопізнаним...


Тривалість: 02:43:49
Якість: HDTV 1080i
Відео:
кодек:
розмір кадру: 1920x1080
бітрейт: 8597 кб/с

Аудіо # 1:
мова: українська
переклад: професійний дубльований
кодек: 2.0
бітрейт: 192 кб/с

Аудіо # 2:
мова: англійська
переклад: оригінал
кодек: 5.1
бітрейт: 384кб/с
Info

General
Unique ID : 242341850951103267989724186806387360769 (0xB65157BEA0A82236A79050953EF24401)
Format :
Format version : Version 4 / Version 2
File size : 10.7 GiB
Duration : 2 h 43 min
Overall bit rate : 9 360 kb/s
Encoded date : UTC 2017-08-28 13:35:32
Writing application : v6.1.0 ('Old Devil') built on Mar 2 2013 14:32:37
Writing library : libebml v1.3.0 + v1.4.0
Cover : Yes
Attachments : Cover.jpg

Video
ID : 1
Format : AVC
Format/Info : Advanced Video Codec
Format profile : [email protected]
Format settings, CABAC : Yes
Format settings, ReFrames : 3 frames
Format settings, GOP : M=4, N=28
Codec ID : V_MPEG4/ISO/AVC
Duration : 2 h 43 min
Bit rate : 8 597 kb/s
Width : 1 920 pixels
Height : 1 080 pixels
Display aspect ratio : 16:9
Frame rate mode : Constant
Frame rate : 25.000 FPS
Standard : Component
Color space : YUV
Chroma subsampling : 4:2:0
Bit depth : 8 bits
Scan type : Interlaced
Scan type, store method : Separated fields
Scan order : Top Field First
Bits/(Pixel*Frame) : 0.166
Stream size : 9.84 GiB (92%)
Title : The Abyss (1989) HDTV 1080i [Extended] [Open Matte] [Ukr.Eng] [Hurtom]
Language : English
Default : Yes
Forced : No
Color range : Limited
Color primaries : BT.709
Transfer characteristics : BT.709
Matrix coefficients : BT.709

Audio #1
ID : 2
Format : AC-3
Format/Info : Audio Coding 3
Format settings, Endianness : Big
Codec ID : A_AC3
Duration : 2 h 43 min
Bit rate mode : Constant
Bit rate : 192 kb/s
Channel(s) : 2 channels
Channel positions : Front: L R
Sampling rate : 48.0 kHz
Frame rate : 31.250 FPS (1536 spf)
Bit depth : 16 bits
Compression mode : Lossy
Stream size : 225 MiB (2%)
Title : Dub | 2+2 | 2.0 | 192 kb/s
Language : Ukrainian
Service kind : Complete Main
Default : Yes
Forced : No

Audio #2
ID : 3
Format : AC-3
Format/Info : Audio Coding 3
Format settings, Endianness : Big
Codec ID : A_AC3
Duration : 2 h 43 min
Bit rate mode : Constant
Bit rate : 384 kb/s
Channel(s) : 6 channels
Channel positions : Front: L C R, Side: L R, LFE
Sampling rate : 48.0 kHz
Frame rate : 31.250 FPS (1536 spf)
Bit depth : 16 bits
Compression mode : Lossy
Delay relative to video : 116 ms
Stream size : 450 MiB (4%)
Title : Original
Language : English
Service kind : Complete Main
Default : No
Forced : No
Скріншоти











Джерело:
Подяка за запис з ТБ: slavik_v_z
За синхронізацію подяка: krigg070
Особиста оцінка: 10 - без зайвих вагань рекомендую всім!

PG-13 - рейтинг стрічки, встановлений Американською асоціацією кінокомпаній

MPAA, англ. Motion Picture Association of America - Американська асоціація кінокомпаній

Рейтинг PG-13 — Parents strongly cautioned
Діти до 13 років допускаються на фільм тільки з батьками.

Настійне застереження батькам. Деякий матеріал може бути недоречним для перегляду дітей до 13 років. Даний рейтинг показує, що оцінений фільм може непідходити для дітей. Батьки повинні бути особливо обережні, дозволяючи своїм маленьким дітям перегляд. Грубе або тривале насильство відсутнє; сексуальна орієнтація на наготу відсутня; деякі сцени вживання наркотиків можуть бути присутніми; можна почути одиничні вживання грубої сексуальної лексики.


Якщо хтось має інформацію про відео з кращою якістю, то повідомте.


Не забуваємо дякувати!


Срібний реліз (на рейтинг впливає 50% завантаженого)
 Трекер:    Зареєстрований   

Завантажити / скачати фільм українською



відео для новачків



 Зареєстрований:   2017-08-28 17:21
 Розмір:   10.71 GB 
 Оцінка фільму:   7.7/10 (Голосів: 43)
   
Інші релізи
Anonymous 







2017-08-28 17:24  
Відео було перемуксовано. Виправленно помилку 1080p на 1080i
Торрент перезалито. Прохання перезавантажити.

0mage0 
VIP


З нами з: 06.10.15
Востаннє: 29.09.20
Повідомлень: 696

2017-09-05 10:02  
Фільм дивний, але цікавий.
Ну і куди ж без цих рожевих шмарклів у кінці...

Оператор 
Поважний учасник


З нами з: 02.06.09
Востаннє: 29.09.20
Повідомлень: 201

2017-09-13 15:10  
Крутяк! Культовий фільм. Дякую автору, що виклав. Молодці 2+2, продублювали, ще й розширену версію)))
pvm 
Поважний учасник


З нами з: 05.03.10
Востаннє: 02.05.20
Повідомлень: 241

2019-11-30 14:25  
Хто може пояснити різницю між спеціальним
Тривалість: 02:51:02,
та розширеним виданням
Тривалість: 02:43:49

igor911 
Модератор відео


З нами з: 18.01.08
Востаннє: 30.09.20
Повідомлень: 15007

2019-11-30 20:51  
Ваш часовий пояс: GMT + 2 Години

Нова тема   Відповісти