Бетмен проти Супермена: На зорі справедливості [Розширена IMAX версія] / Batman v Superman: Dawn of Justice [Ultimate IMAX Edition] (2016) 720-mini Ukr/Eng | Sub Ukr/Eng

Нові коментарі

Нова тема   Відповісти
Автор Повідомлення
zoomymba2012 
VIP


З нами з: 08.01.15
Востаннє: 26.04.19
Повідомлень: 595

2017-08-25 21:51  
Бетмен проти Супермена: На зорі справедливості [Розширена IMAX версія] / Batman v Superman: Dawn of Justice [Ultimate IMAX Edition] (2016) 720-mini Ukr/Eng | Sub Ukr/Eng

Бетмен проти Супермена: На зорі справедливості [Розширена IMAX версія] / Batman v Superman: Dawn of Justice [Ultimate IMAX Edition] (2016) 720-mini Ukr/Eng | Sub Ukr/Eng


Жанр: пригоди, фентезі, дія
Країна: США



Кінокомпанія: Warner Bros., Atlas Entertainment, Cruel & Unusual Films
Режисер: Зак Снайдер
Актори: Генрі Кавілл, Бен Аффлек, Емі Адамс, Джейсон Момоа, Джессі Айзенберґ, Ґал Ґадот, Джеффрі Дін Морґан, Даян Лейн, Езра Міллер, Джеремі Айронс

Сюжет:
Після руйнівної боротьби проти генерала Зода, місто Метрополіс було зруйноване вщент. Супермен став найбільш суперечливою персоною в світі. Поки одна частина людства вважає його символом надії, все більше людей схиляється до думки про те, що ця надлюдина несе загрозу для Землі. Брюс Вейн стурбований небезпекою, яку Супермен представляє для суспільства. Він невпевнений у збереженні миру у світі, де така сила залишається безконтрольною. Вейн одягає маску і костюм Бетмена, щоб виправити несправедливість надлюдини. Поки протистояння двох героїв набирає сили, на горизонті з'являється нова загроза. Людина, яка має більше влади, ніж Супермен і Бетмен, готова знищити все, за що вони боролися.



Тривалість: 03:02:33
Якість:
Відео:
кодек:
розмір кадру: 1280 х 720
бітрейт: 2 400 кб/с

Аудіо # 1:
мова: українська
переклад: професійний дубльований
кодек: 2.0
бітрейт: 192 кб/с

Аудіо # 2:
мова: англійська
переклад: оригінал
кодек: 5.1
бітрейт: 448 кб/с

Субтитри:
мова: українська
тип: програмні (м'які)
формат: *.srt

Субтитри:
мова: українська
тип: програмні (м'які)
формат: *.srt

Субтитри:
мова: англійська
тип: програмні (м'які)
формат: *.srt

Субтитри:
мова: англійська
тип: програмні (м'які)
формат: *.srt
Info
General
Unique ID : 203037093461051130608050526920773515130 (0x98BF859575429AA594DD2460320CB77A)
Complete name : D:\c\Batman v Superman (2016) [Ukr, Eng] 720p-mini [Ultimate IMAX Edition].
Format :
Format version : Version 4 / Version 2
File size : 3.80 GiB
Duration : 3 h 2 min
Overall bit rate : 2 982 kb/s
Encoded date : UTC 2017-08-25 18:15:45
Writing application : v13.0.0 ('The Juggler') 64bit
Writing library : libebml v1.3.4 + v1.4.5
Cover : Yes
Attachments : cover

Video
ID : 1
Format : AVC
Format/Info : Advanced Video Codec
Format profile : [email protected]
Format settings, CABAC : Yes
Format settings, RefFrames : 4 frames
Codec ID : V_MPEG4/ISO/AVC
Duration : 3 h 2 min
Bit rate : 2 400 kb/s
Width : 1 280 pixels
Height : 720 pixels
Display aspect ratio : 16:9
Frame rate mode : Constant
Frame rate : 23.976 (23976/1000) FPS
Color space : YUV
Chroma subsampling : 4:2:0
Bit depth : 8 bits
Scan type : Progressive
Bits/(Pixel*Frame) : 0.109
Stream size : 2.98 GiB (78%)
Writing library : core 148
Encoding settings : cabac=1 / ref=3 / deblock=1:0:0 / analyse=0x3:0x113 / me=hex / subme=7 / psy=1 / psy_rd=1.00:0.00 / mixed_ref=1 / me_range=16 / chroma_me=1 / trellis=1 / 8x8dct=1 / cqm=0 / deadzone=21,11 / fast_pskip=1 / chroma_qp_offset=-2 / threads=6 / lookahead_threads=1 / sliced_threads=0 / nr=0 / decimate=1 / interlaced=0 / bluray_compat=0 / constrained_intra=0 / bframes=3 / b_pyramid=2 / b_adapt=1 / b_bias=0 / direct=1 / weightb=1 / open_gop=0 / weightp=2 / keyint=250 / keyint_min=23 / scenecut=40 / intra_refresh=0 / rc_lookahead=40 / rc=abr / mbtree=1 / bitrate=2400 / ratetol=1.0 / qcomp=0.60 / qpmin=0 / qpmax=69 / qpstep=4 / ip_ratio=1.40 / aq=1:1.00
Language : Russian
Default : Yes
Forced : No

Audio #1
ID : 2
Format : AC-3
Format/Info : Audio Coding 3
Format settings, Endianness : Big
Codec ID : A_AC3
Duration : 3 h 2 min
Bit rate mode : Constant
Bit rate : 192 kb/s
Channel(s) : 2 channels
Channel positions : Front: L R
Sampling rate : 48.0 kHz
Frame rate : 31.250 FPS (1536 SPF)
Bit depth : 16 bits
Compression mode : Lossy
Stream size : 251 MiB (6%)
Title : 2.0 @ 192 kbps
Language : Ukrainian
Service kind : Complete Main
Default : Yes
Forced : Yes

Audio #2
ID : 3
Format : AC-3
Format/Info : Audio Coding 3
Format settings, Endianness : Big
Codec ID : A_AC3
Duration : 3 h 2 min
Bit rate mode : Constant
Bit rate : 448 kb/s
Channel(s) : 6 channels
Channel positions : Front: L C R, Side: L R, LFE
Sampling rate : 48.0 kHz
Frame rate : 31.250 FPS (1536 SPF)
Bit depth : 16 bits
Compression mode : Lossy
Stream size : 585 MiB (15%)
Title : 5.1 @ 448 kbps
Language : English
Service kind : Complete Main
Default : No
Forced : No

Text #1
ID : 4
Format : UTF-8
Codec ID : S_TEXT/UTF8
Codec ID/Info : UTF-8 Plain Text
Duration : 2 h 54 min
Bit rate : 17 b/s
Count of elements : 384
Stream size : 22.4 KiB (0%)
Title : Forced
Language : Ukrainian
Default : Yes
Forced : Yes

Text #2
ID : 5
Format : UTF-8
Codec ID : S_TEXT/UTF8
Codec ID/Info : UTF-8 Plain Text
Duration : 2 h 53 min
Bit rate : 66 b/s
Count of elements : 1615
Stream size : 84.1 KiB (0%)
Title : Full
Language : Ukrainian
Default : No
Forced : No

Text #3
ID : 6
Format : UTF-8
Codec ID : S_TEXT/UTF8
Codec ID/Info : UTF-8 Plain Text
Duration : 2 h 53 min
Bit rate : 40 b/s
Count of elements : 1584
Stream size : 50.8 KiB (0%)
Title : Full
Language : English
Default : No
Forced : No

Text #4
ID : 7
Format : UTF-8
Codec ID : S_TEXT/UTF8
Codec ID/Info : UTF-8 Plain Text
Duration : 2 h 53 min
Bit rate : 46 b/s
Count of elements : 1913
Stream size : 58.5 KiB (0%)
Title : SDH
Language : English
Default : No
Forced : No

Menu
00:00:00.000 : :00:00:00.000
00:10:10.652 : :00:10:10.652
00:27:00.661 : :00:27:00.661
00:37:49.225 : :00:37:49.225
00:46:54.520 : :00:46:54.520
01:02:04.971 : :01:02:04.971
01:14:10.613 : :01:14:10.613
01:28:07.115 : :01:28:07.115
01:41:46.642 : :01:41:46.642
01:53:52.617 : :01:53:52.617
02:02:58.079 : :02:02:58.079
02:15:04.054 : :02:15:04.054
02:27:55.075 : :02:27:55.075
02:36:51.444 : :02:36:51.444
02:48:27.514 : :02:48:27.514
02:54:43.765 : :02:54:43.765
Скріншоти
Джерело: &
Особиста оцінка: 8 - мені сподобалося


 Трекер:    Зареєстрований   

Завантажити / скачати фільм українською



відео для новачків



 Зареєстрований:   2017-08-25 21:51
 Розмір:   3.8 GB 
 Оцінка фільму:   9.3/10 (Голосів: 35)
   
Інші релізи
   Бетмен проти Супермена: На зорі справедливості [Розширена IMAX версія] / Batman v Superman: Dawn of Justice [Ultimate IMAX Edition] (2016) 1080p Ukr/Eng | Sub Ukr/Eng zoomymba2012  5 / 0   22.67 GB   2017-08-23 17:00 
   Бетмен проти Супермена: На зорі справедливості [Розширена версія] / Batman v Superman: Dawn of Justice [Extended Ultimate Edition] (2016) AVC Ukr/Eng | Sub Ukr/Eng 11FrYkT  10 / 0   3.3 GB   2016-10-21 18:13 
   Бетмен проти Супермена: На зорі справедливості [Розширена версія] / Batman v Superman: Dawn of Justice [Extended Ultimate Edition] (2016) 1080p Ukr/Eng | Sub Ukr/Eng Demrandir  3 / 0   15.98 GB   2016-09-27 16:53 
   Бетмен проти Супермена: На зорі справедливості [Розширена версія] / Batman v Superman: Dawn of Justice [Extended Ultimate Edition] (2016) [2.0 ] Український дубляж + вставки оригіналу | Sub Ukr Demrandir  2 / 0   251 MB   2016-09-27 16:46 
   Бетмен проти Супермена: На зорі справедливості [Розширена версія] / Batman v Superman: Dawn of Justice [Extended Ultimate Edition] (2016) 1080p 3D [HalfOverUnder] Ukr/Eng | Sub Ukr/Eng GEORGKys  0 / 0   25.29 GB   2016-09-18 22:46 
   Бетмен проти Супермена: На зорі справедливості / Batman v Superman: Dawn of Justice (2016) 1080p Ukr/Eng | Sub Eng 11FrYkT  1 / 0   16.59 GB   2016-09-15 22:04 
   Бетмен проти Супермена: На зорі справедливості / Batman v Superman: Dawn of Justice (2016) 720p Ukr/Eng | Sub Eng 11FrYkT  5 / 0   9.87 GB   2016-09-15 22:00 
   Бетмен проти Супермена: На зорі справедливості / Batman v Superman: Dawn of Justice (2016) AVC AngryBirdsUA  5 / 0   2.18 GB   2016-09-15 22:00 
   Бетмен проти Супермена: На зорі справедливості / Batman v Superman: Dawn of Justice (2016) Covenant  8 / 0   2.18 GB   2016-09-15 10:04 
   Бетмен проти Супермена : На зорі справедливості [Розширена версія] / Batman v Superman: Dawn of Justice (2016) [Extended Ultimate Edition] 720p Ukr/Eng | Sub Ukr/Eng Bod_zik99  4 / 0   9.81 GB   2016-07-12 12:58 
   Бетмен проти Супермена: На зорі справедливості / Batman v Superman: Dawn of Justice (2016) 1080p 3D [HalfOverUnder] Ukr/Eng | sub Eng -VipeR-  1 / 0   10.03 GB   2016-07-09 09:53 
MrRyanCooper 
VIP


З нами з: 24.08.12
Востаннє: 25.04.19
Повідомлень: 493

2017-08-26 20:02  
о, дякую, яке щастя, нарешті 720р-mini
igor911 
Відео Гуртом
Відео Гуртом


З нами з: 18.01.08
Востаннє: 26.04.19
Повідомлень: 12355

2017-08-26 20:08  
zoomymba2012 написано:
Bits/(Pixel*Frame) : 0.109

Додаток до релізів в якості HD написано:
5. Обов'язкові технічні вимоги:
Параметри кодування мають відповідати хоча б me=umh, subme=7, ref=3
2pass: значення Bits/(Pixel*Frame) має бути не меншим, ніж 0.12, для анімації - 0.08
CRF: значення CRF має бути не більшим, ніж 22


Додано через 48 секунд:

треба замінити відеоряд на якісніший. Ознайомитись з Правилами можна там https://toloka.to/t201

KotSilver 
Новенький


З нами з: 25.09.14
Востаннє: 24.04.19
Повідомлень: 11

2017-12-04 11:59  
Не знав, що у Бетмена такий авторитет на зоні.
zoomymba2012 
VIP


З нами з: 08.01.15
Востаннє: 26.04.19
Повідомлень: 595

2018-03-30 23:41  
KotSilver
Це ж Лекс Лютор підкупив ув'язнених.

alonzo 
VIP


З нами з: 30.08.15
Востаннє: 25.04.19
Повідомлень: 256

2019-02-13 00:15  
вкотре переглянув цей фільм і ще й ще раз впевнююсь що це мега-фільм по коміксах що зараз існують , тому як це справжня комікс-драма з великими і різними темпераментними характерами, що класно обіграні хорошою грою акторів, зі справжнім драматичним сюжетом і заплутаністю ходів героїв, які боряться кожен зі соєю драмою і власними амбіціями ! Погано що аві режисерки досі не існує - і ще дужче погано що студія DC з"їзджає з рейок і крокує шляхом МАРВЕЛ . , з часів "Людини зі сталі" та й "Повернення Супермена" це класна серія фільмів що створена DC до тепер включно з "Лігою справедливості"(Аквамена і Диво-жінку я виключаю з цієї категорії - тому що вони пахнуть МАРВЕЛ ) і цю серію можна переглядати неодноразово як Володаря Поттера чи Борна і подібних серій фільмів що творять свою історію і власний світ !
Ваш часовий пояс: GMT + 2 Години

Нова тема   Відповісти