Безсоромні (Сезон 1, Серія 1) / Shameless (Season 1, Episode 1) (2011) 720p Eng | sub Ukr

Нові коментарі

Нова тема   Відповісти
Автор Повідомлення
pskrm 
Новенький


З нами з: 03.03.17
Востаннє: 06.12.17
Повідомлень: 20

2017-08-24 12:53  
Безсоромні (Сезон 1, Серія 1) / Shameless (Season 1, Episode 1) (2011) 720p Eng | sub Ukr

Безсоромні (Сезон 1, Серія 1) / Shameless (Season 1, Episode 1) (2011) 720p Eng | sub Ukr


Жанр: комедія, драма
Країна: США



Кінокомпанія: Showtime
Режисер: Пол Ебботт
Актори: Уільям Мейсі, Еммі Россум, Ітан Каткоскі

Сюжет:
Американський ремейк британського серіалу, що розповідає про навіжену багатодітну родину Ґаллаґерів та їх сусідів, які веселяться, потрапляють у найнеймовірніші ситуації і намагаються вижити у цьому світі усіма можливими засобами уникаючи роботи.
Перелік серій

01. Pilot / Пілот
Тривалість: 01:00:00
Якість: 720p
Відео:
кодек:
розмір кадру: 1280 х 720
бітрейт: 1778 кб/с

Аудіо:
мова: англійська
переклад: оригінал
кодек: 2.0
бітрейт: 165 кб/с

Субтитри:
мова: українська
тип: програмні (м'які)
формат: *.srt

Субтитри :власний переклад
Info

General
Complete name : Shameless.s01e01.mp4
Format : MPEG-4
Format profile : Base Media
Codec ID : isom (isom/iso2/avc1/mp41)
File size : 803 MiB
Duration : 57 min 28 s
Overall bit rate mode : Variable
Overall bit rate : 1 953 kb/s
Movie name : Shameless.US.S01E01.720p.5.1Ch.BluRay.ReEnc-DeeJayAhmed
Writing application : Lavf56.40.101

Video
ID : 1
Format : AVC
Format/Info : Advanced Video Codec
Format profile : [email protected]
Format settings, CABAC : Yes
Format settings, RefFrames : 4 frames
Codec ID : avc1
Codec ID/Info : Advanced Video Coding
Duration : 57 min 28 s
Bit rate : 1 778 kb/s
Width : 1 278 pixels
Height : 720 pixels
Display aspect ratio : 16:9
Frame rate mode : Variable
Frame rate : 23.976 (24000/1001) FPS
Minimum frame rate : 23.810 FPS
Maximum frame rate : 24.390 FPS
Color space : YUV
Chroma subsampling : 4:2:0
Bit depth : 8 bits
Scan type : Progressive
Bits/(Pixel*Frame) : 0.081
Stream size : 731 MiB (91%)
Writing library : core 148 r2643 5c65704
Encoding settings : cabac=1 / ref=1 / deblock=1:0:0 / analyse=0x1:0x111 / me=hex / subme=2 / psy=1 / psy_rd=1,00:0,00 / mixed_ref=0 / me_range=16 / chroma_me=1 / trellis=0 / 8x8dct=0 / cqm=0 / deadzone=21,11 / fast_pskip=1 / chroma_qp_offset=0 / threads=3 / lookahead_threads=1 / sliced_threads=0 / nr=0 / decimate=1 / interlaced=0 / bluray_compat=0 / constrained_intra=0 / bframes=3 / b_pyramid=2 / b_adapt=1 / b_bias=0 / direct=1 / weightb=1 / open_gop=0 / weightp=1 / keyint=240 / keyint_min=24 / scenecut=40 / intra_refresh=0 / rc_lookahead=10 / rc=crf / mbtree=1 / crf=20,0 / qcomp=0,60 / qpmin=0 / qpmax=69 / qpstep=4 / vbv_maxrate=20000 / vbv_bufsize=25000 / crf_max=0,0 / nal_hrd=none / filler=0 / ip_ratio=1,40 / aq=1:1,00
Color range : Limited
Color primaries : BT.709
Transfer characteristics : BT.709
Matrix coefficients : BT.709
Menus : 4

Audio
ID : 2
Format :
Format/Info : Advanced Audio Codec
Format profile : LC
Codec ID : 40
Duration : 57 min 28 s
Duration_LastFrame : 21 ms
Bit rate mode : Constant
Bit rate : 168 kb/s
Channel(s) : 2 channels
Channel positions : Front: L R
Sampling rate : 48.0 kHz
Frame rate : 46.875 FPS (1024 SPF)
Compression mode : Lossy
Stream size : 68.9 MiB (9%)
Language : English
Default : Yes
Alternate group : 1
Menus : 4

Text
ID : 3
Format : Timed Text
Muxing mode : sbtl
Codec ID : tx3g
Duration : 57 min 28 s
Bit rate mode : Variable
Bit rate : 103 b/s
Stream size : 43.5 KiB (0%)
Language : Ukrainian
Default : Yes
Forced : No
Alternate group : 3
Menus : 4

Menu #1
ID : 4
Codec ID : text
Duration : 57 min 28 s
Language : English
Bit rate mode : CBR
Menu For : 1,2,3
00:00:00.000 : 00:00:00.000
00:02:34.133 : 00:02:34.029
00:09:50.861 : 00:09:50.673
00:20:26.079 : 00:20:25.975
00:30:03.364 : 00:30:03.260
00:39:46.488 : 00:39:46.384
00:52:05.810 : 00:52:05.706
00:56:45.381 : 00:56:45.277

Menu #2
00:00:00.021 : 00:00:00.000
00:02:34.133 : 00:02:34.029
00:09:50.861 : 00:09:50.673
00:20:26.079 : 00:20:25.975
00:30:03.364 : 00:30:03.260
00:39:46.488 : 00:39:46.384
00:52:05.810 : 00:52:05.706
00:56:45.381 : 00:56:45.277
Скріншоти


Джерело:
Особиста оцінка: 8 - мені сподобалося


Золотий реліз (завантажене не впливає на рейтинг)
 Трекер:    Зареєстрований   

Завантажити / скачати серіал українською



відео для новачків



 Зареєстрований:   2017-08-24 12:53
 Розмір:   803 MB 
 Оцінка серіалу:   9.9/10 (Голосів: 10)
   
Bod_zik99 
VIP


З нами з: 28.12.13
Востаннє: 13.12.17
Повідомлень: 1275

2017-08-24 12:54  
!!??
igor911 
Відео Гуртом
Відео Гуртом


З нами з: 18.01.08
Востаннє: 13.12.17
Повідомлень: 8485

2017-08-24 13:02  
pskrm написано:

Info написано:
Shameless.US.S01E01.720p.5.1Ch.BluRay.ReEnc-DeeJayAhmed

Замініть якість на " 720p"

Додано через 47 секунд:

pskrm написано:
кодек: 5.1

2.0

asdfghqwertyqwerty 
Новенький


З нами з: 11.04.15
Востаннє: 10.12.17
Повідомлень: 1

2017-08-24 21:19  
Нарешті, браво! Серіал чудовий, раджу дивитись. Скоро буде новий сезон, чи можемо очікувати що серії будуть озвучуватись день-два опісля виходу в Америці?
_hellisa 
Свій


З нами з: 26.02.17
Востаннє: 13.12.17
Повідомлень: 79

2017-08-24 21:58  
asdfghqwertyqwerty

За озвучку сказати нічого не можу. Новий сезон буде субтитруватися, паралельно з попередніми, але із затримкою більше двох днів це точно.
Самі озвучуванням не займаємося, але відкриті до співпраці з іншими студіями.

troubless 
Частий відвідувач


З нами з: 14.06.11
Востаннє: 13.12.17
Повідомлень: 32

2017-10-23 20:10  
Чи буде продовження?
KiraKenobi 
Новенький


З нами з: 15.08.12
Востаннє: 12.12.17
Повідомлень: 21

2017-11-03 00:16  
troubless
Буде. Не вистачає перекладачів для роботи. Тому так повільно.

Ваш часовий пояс: GMT + 2 Години

Нова тема   Відповісти