Королівство / The Kingdom (2007) AVC 2xUkr/Eng | Sub Eng

Нові коментарі

Нова тема   Відповісти
Автор Повідомлення
Anonymous 







2017-08-24 12:42  
Королівство / The Kingdom (2007) AVC 2xUkr/Eng | Sub Eng



Жанр: бойовик, трилер, драма
Країна: США, Німеччина



Кінокомпанія: Universal Pictures, Relativity Media, Forward Pass
Режисер: Пітер Берг / Peter Berg
Актори: Джеймі Фокс / Jamie Foxx, Дженіфер Гарнер / Jennifer Garner, Джейсон Бейтман / Jason Bateman, Кріс Купер / Chris Cooper, Ашраф Бархом / Ashraf Barhom, Алі Суліман / Ali Suliman, Річард Дженкінс / Richard Jenkins, Денні Хьюстон / Danny Huston та інші

Сюжет:
Драматичний бойовик на тему конфлікту на Близькому Сході. У Саудівську Аравію відправляється команда з чотирьох агентів ФБР, щоб розслідувати теракт, що стався на американському об'єкті у цій країні, і знайти такого собі Абу Хамза, імовірно ватажка терористів.  Відразу стає зрозуміло, що місія буде не з легких. Однак американці знаходять спільну мову з представником місцевої поліції, який буде по можливості надавати команді допомогу у встановленні справедливості в цій чужій їм країні.


рейтинг MPAA: R - особам до 17 років обов'язкова присутність батьків або дорослого опікуна
Вікова категорія: 16+

Тривалість: 01:49:45
Якість: AVC
Відео:
кодек:
розмір кадру: 1024x432
бітрейт: 2401 кб/с

Аудіо # 1:
мова: українська
переклад: багатоголосий закадровий | Так Треба Продакшн
кодек: 2.0 [стерео]
бітрейт: 192 кб/с

Аудіо # 2:
мова: українська
переклад: багатоголосий закадровий | Так Треба Продакшн
ролі озвучили: Юрій Ребрик (Джеймі Фокс / Ronald Fleury), Владислав Пупков (Кріс Купер / Grant Sykes), Роман Семисал і один жіночий голос
кодек: 2.0
бітрейт: 192 кб/с
Помилки перекладу
00:17:09 - в оригіналі "Attorney General" (Генеральний прокурор) переклали і озвучили як "Генеральний етторні"
помітив п.MAKAPOHHIK, в новішому перекладі/озвученні для Воля Cine+ (Аудіо #1) цієї помилки вже немає, озвучено як "Генпрокурор"
Примітка: переклад та озвучення різні в Аудіо # 1 та Аудіо # 2

Аудіо # 3:
мова: англійська
переклад: оригінал
кодек: 5.1
бітрейт: 448 кб/с

Субтитри:
мова: англійська
тип: програмні (м'які)
формат: *.srt

Збережено оригінальні розділи, як на Blu-ray.
Info
Код:
Complete name               : The Kingdom (2007) [2xUkr,Eng sub.Eng] AVC [Hurtom].
Format                      :
Format version              : Version 4 / Version 2
File size                   : 2.48 GiB
Duration                    : 1 h 49 min
Overall bit rate            : 3 236 kb/s
Movie name                  : Королівство / The Kingdom (2007) [2xUkr,Eng sub.Eng] AVC [Hurtom]
Cover                       : Yes
Attachments                 : cover.jpg

Video
ID                          : 1
Format                      : AVC
Format/Info                 : Advanced Video Codec
Format profile              : [email protected]
Format settings, CABAC      : Yes
Format settings, RefFrames  : 8 frames
Codec ID                    : V_MPEG4/ISO/AVC
Duration                    : 1 h 49 min
Bit rate                    : 2 401 kb/s
Width                       : 1 024 pixels
Height                      : 432 pixels
Display aspect ratio        : 2.40:1
Frame rate mode             : Constant
Frame rate                  : 23.976 FPS
Color space                 : YUV
Chroma subsampling          : 4:2:0
Bit depth                   : 8 bits
Scan type                   : Progressive
Bits/(Pixel*Frame)          : 0.226
Stream size                 : 1.84 GiB (74%)
Title                       : Королівство / The Kingdom (2007) AVC
Writing library             : core 112 r1867 22bfd31
Encoding settings           : cabac=1 / ref=8 / deblock=1:-3:-3 / analyse=0x3:0x133 / me=umh / subme=9 / psy=1 / psy_rd=1.00:0.20 / mixed_ref=1 / me_range=32 / chroma_me=1 / trellis=2 / 8x8dct=1 / cqm=0 / deadzone=21,11 / fast_pskip=1 / chroma_qp_offset=-3 / threads=3 / sliced_threads=0 / nr=0 / decimate=1 / interlaced=0 / constrained_intra=0 / bframes=16 / b_pyramid=2 / b_adapt=2 / b_bias=2 / direct=3 / weightb=1 / open_gop=0 / weightp=2 / keyint=250 / keyint_min=23 / scenecut=40 / intra_refresh=0 / rc_lookahead=60 / rc=2pass / mbtree=1 / bitrate=2401 / ratetol=0.1 / qcomp=0.80 / qpmin=0 / qpmax=51 / qpstep=4 / cplxblur=20.0 / qblur=0.5 / ip_ratio=1.40 / aq=1:1.00
Language                    : English
Default                     : Yes
Forced                      : No
Color range                 : Full

Audio #1
ID                          : 2
Format                      : AC-3
Format/Info                 : Audio Coding 3
Format settings, Endianness : Big
Codec ID                    : A_AC3
Duration                    : 1 h 49 min
Bit rate mode               : Constant
Bit rate                    : 192 kb/s
Channel(s)                  : 2 channels
Channel positions           : Front: L R
Sampling rate               : 48.0 kHz
Frame rate                  : 31.250 FPS (1536 SPF)
Bit depth                   : 16 bits
Compression mode            : Lossy
Stream size                 : 151 MiB (6%)
Title                       : MVO [Volya Cine+, TTP] 2.0 [stereo] 192 Kbps [Hurtom-igor911, Sando7]
Language                    : Ukrainian
Service kind                : Complete Main
Default                     : Yes
Forced                      : Yes

Audio #2
ID                          : 3
Format                      : AC-3
Format/Info                 : Audio Coding 3
Format settings, Endianness : Big
Codec ID                    : A_AC3
Duration                    : 1 h 49 min
Bit rate mode               : Constant
Bit rate                    : 192 kb/s
Channel(s)                  : 2 channels
Channel positions           : Front: L R
Sampling rate               : 48.0 kHz
Frame rate                  : 31.250 FPS (1536 SPF)
Bit depth                   : 16 bits
Compression mode            : Lossy
Stream size                 : 151 MiB (6%)
Title                       : MVO [TRK Ukraina, TTP] 2.0 192 Kbps [Hurtom-patriot2305, xslim]
Language                    : Ukrainian
Service kind                : Complete Main
Default                     : No
Forced                      : No

Audio #3
ID                          : 4
Format                      : AC-3
Format/Info                 : Audio Coding 3
Format settings, Endianness : Big
Codec ID                    : A_AC3
Duration                    : 1 h 49 min
Bit rate mode               : Constant
Bit rate                    : 448 kb/s
Channel(s)                  : 6 channels
Channel positions           : Front: L C R, Side: L R, LFE
Sampling rate               : 48.0 kHz
Frame rate                  : 31.250 FPS (1536 SPF)
Bit depth                   : 16 bits
Compression mode            : Lossy
Stream size                 : 352 MiB (14%)
Title                       : Original, 5.1 448 Kbps
Language                    : English
Service kind                : Complete Main
Default                     : No
Forced                      : No

Text
ID                          : 5
Format                      : UTF-8
Codec ID                    : S_TEXT/UTF8
Codec ID/Info               : UTF-8 Plain Text
Duration                    : 1 h 43 min
Bit rate                    : 63 b/s
Count of elements           : 1389
Stream size                 : 47.8 KiB (0%)
Language                    : English
Default                     : No
Forced                      : No

Menu
00:00:00.000                : en:Unholy Alliance
00:03:53.483                : en:Terrorist Attack
00:09:36.034                : en:Coordinated Hit
00:14:39.253                : en:Withholding Personnel
00:20:37.153                : en:I Want In, Now
00:24:02.983                : en:Check Yourself
00:29:39.111                : en:On Saudi Soil
00:36:44.661                : en:Meeting the Prince
00:40:25.173                : en:Scene of the Crime
00:45:18.716                : en:Looking for Clues
00:51:29.586                : en:We Have Permission
00:55:59.898                : en:Let Us Help You
00:59:49.711                : en:Evidence Mounts
01:07:09.234                : en:Chasing Ghosts
01:13:01.627                : en:A Big Clue
01:18:37.171                : en:On the Way Out
01:29:03.088                : en:No Time for Backup
01:34:10.436                : en:Got Him
01:38:42.750                : en:Kill Them All
01:44:19.295                : en:End Credits
Скріншоти
Джерело: &
Українські доріжки: #1 - Sando7, igor911; #2 - xslim, patriot2305. Постер - Тирік

ЗАЛИШАЙТЕСЬ ЯКОМОГА ДОВШЕ НА РОЗДАЧІ!

ЗАВАНТАЖИВ САМ - ДАЙ ЗАВАНТАЖИТИ ІНШИМ


 Трекер:    Зареєстрований   

Завантажити / скачати фільм українською



відео для новачків



 Зареєстрований:   2017-08-24 13:28
 Розмір:   2.48 GB 
 Оцінка фільму:   7.2/10 (Голосів: 36)
   
Інші релізи
   Королівство / The Kingdom (2007) 2xUkr igor911  4 / 0   1.79 GB   2017-08-24 11:22 
   Королівство / The Kingdom (2007) 720p 2xUkr/Eng | Sub Eng igor911  0 / 0   4.02 GB   2017-08-24 01:15 
   Королівство / The Kingdom (2007) 1080p 2xUkr/Eng | Sub Eng igor911  4 / 0   7.56 GB   2017-08-23 16:39 
merlinker 
Свій


З нами з: 03.04.11
Востаннє: 02.07.20
Повідомлень: 88

2019-12-29 00:33  
Фільм шикарнющий. Стоїть поруч із Сікаріо.
Буду тримати на роздачі, скільки зможу

hgj 
Новенький


З нами з: 31.10.16
Востаннє: 01.06.20
Повідомлень: 4

2020-02-13 15:59  
Мені теж фільм подобається.
RudiUA 
Частий відвідувач


З нами з: 02.04.13
Востаннє: 02.07.20
Повідомлень: 39

2020-04-05 00:55  
Фільм вартий уваги, сюжет супер, не простий бойовик. Думаю, що Сікаріо стоїть збоку.
mishann 
Новенький


З нами з: 04.01.13
Востаннє: 29.06.20
Повідомлень: 8

2020-04-17 23:38  
Фільм вартий уваги.
Сценацій продуманий, гра акторів на висоті, зйомка і спецефекти також досить на високому рівні.
Рекомендую для перегляду

Ваш часовий пояс: GMT + 2 Години

Нова тема   Відповісти