Військовий Парад до Дня Незалежності України [UA: Перший] (2017) 1080p

Нові коментарі

Нова тема   Відповісти
Автор Повідомлення
sergiyko.5 
VIP


З нами з: 25.02.16
Востаннє: 23.02.18
Повідомлень: 1361

2017-08-24 11:34  
Військовий Парад до Дня Незалежності України [UA: Перший] (2017) 1080p

Військовий Парад до Дня Незалежності України [UA: Перший] (2017) 1080p

Жанр: святкові заходи
Країна: Україна
Телеканал: UA: Перший

Сюжет:
У Києві на Хрещатику, 24 серпня 2017 року, відбувся військовий парад з нагоди Дня Незалежності України.

У військовому параді взяли участь більше 4 000 українських військовослужбовців. Загалом у марші взяли участь 20 військових підрозділів. До них долучились військові резерву АТО та військові країн-партнерів України.


Тривалість: 01:31:55
Якість:

Відео: кодек: розмір кадру: 1920 х 1080 бітрейт: 3800 кб/с
Аудіо: мова: українська переклад: оригінал кодек: 2chбітрейт: 128 кб/с
Про файл:

General
Complete name : E:\FILMS\Військовий парад до Дня Незалежності 2017.UAПерший..1080p.MP4
Format : MPEG-4
Format profile : Base Media
Codec ID : isom (isom/iso2/avc1/mp41)
File size : 2.52 GiB
Duration : 1 h 31 min
Overall bit rate mode : Variable
Overall bit rate : 3 926 kb/s
Encoded date : UTC 2017-08-24 08:26:46
Tagged date : UTC 2017-08-24 08:26:46

Video
ID : 1
Format : AVC
Format/Info : Advanced Video Codec
Format profile : [email protected]
Format settings, CABAC : Yes
Format settings, RefFrames : 2 frames
Codec ID : avc1
Codec ID/Info : Advanced Video Coding
Duration : 1 h 31 min
Bit rate : 3 797 kb/s
Width : 1 920 pixels
Height : 1 080 pixels
Display aspect ratio : 16:9
Frame rate mode : Constant
Frame rate : 25.000 FPS
Color space : YUV
Chroma subsampling : 4:2:0
Bit depth : 8 bits
Scan type : Progressive
Bits/(Pixel*Frame) : 0.073
Stream size : 2.44 GiB (97%)
Encoded date : UTC 2017-08-24 08:26:46
Tagged date : UTC 2017-08-24 08:26:46
Color range : Limited
Color primaries : BT.709
Transfer characteristics : BT.709
Matrix coefficients : BT.709

Audio
ID : 2
Format :
Format/Info : Advanced Audio Codec
Format profile : LC
Codec ID : 40
Duration : 1 h 31 min
Bit rate mode : Variable
Bit rate : 126 kb/s
Channel(s) : 2 channels
Channel positions : Front: L R
Sampling rate : 44.1 kHz
Frame rate : 43.066 FPS (1024 SPF)
Compression mode : Lossy
Stream size : 82.6 MiB (3%)
Default : Yes
Alternate group : 1
Encoded date : UTC 2017-08-24 08:27:56
Tagged date : UTC 2017-08-24 08:27:56
Скріншоти:



Реліз: sergiyko


Золотий реліз (завантажене не впливає на рейтинг)
 Трекер:    Зареєстрований   

Завантажити / скачати передачу українською



відео для новачків



 Зареєстрований:   2017-08-24 11:34
 Розмір:   2.52 GB 
 Оцінка передачі:   9.7/10 (Голосів: 26)
   
Форкуш 
VIP


З нами з: 03.02.10
Востаннє: 23.02.18
Повідомлень: 2082

2017-08-24 20:19  
Дуже хочеться більше не чути оці радянські непорозуміння:
рівняйсь
Вітаю товариші,
Бажаю здоров’я,
морскіє-піхотінци
Івана Черняховського і т.п.
Парад дуже атмосферний. Макаров - молодець!

bohun 
VIP


З нами з: 21.03.09
Востаннє: 23.02.18
Повідомлень: 324

2017-08-24 22:32  
Теж вже починають різати вухо (і колоти око?) оці суто радянські елементи параду з "товаришами", роз'їздами генералів на "чайках" (ой, вибачте, на "хаммерах") перед військовими; неприродне, надривисте марширування (цього разу було дуже класно видно різницю, як марширують у нас, і як марширують в інших країнах). Добра тенденція - все частіше говорять про зв'язок УНР і України, про правонаступництво і спадкоємництво традицій; козацькі хоругви, однострої УНР, назви підрозділів на честь історичних осіб - це все дуже правильно, і я радий, що це робиться, хоч і з запізненням.
ingwar 
Модератор літератури


З нами з: 08.03.08
Востаннє: 23.02.18
Повідомлень: 1238

2017-08-26 07:05  
Слово "товариство" дуже часто використовували і козаки колись. У Яворницького багато є про "козацьке товариство". Відповідно, козак називав іншого козака "товаришем".

Те, що москалі використовують якесь слово, не означає, що ми його повинні перестати використовувати.

А щодо відмови від "совка"- повністю згоден. Хоча, слід зазначити, цього року у параді помітно багато прогресу в цьому напрямку- багато, як ніколи до цього: прапори козацького типу, нова форма, шаблі як традиційний елемент, назви частин (імені Чорних Запорожців) тощо.

bohun 
VIP


З нами з: 21.03.09
Востаннє: 23.02.18
Повідомлень: 324

2017-09-18 11:07  
ingwar написано:
Слово "товариство" дуже часто використовували і козаки колись

Безперечно. Свастика до 1930-х років теж була собі таким невинним символом, відомим у багатьох народів, але після відомо яких подій подій цей символ став асоціюватись з зовсім іншими речами і обставинами. Ця ж доля, на жаль, спіткала і "товаришів". В свідомості більшості людей звертання "товаришу полковник" міцно асоціюється з совком. Певний час була думка використовувати звертання "пане" замість "товаришу". Але далі розмов діло не пішло.

Ваш часовий пояс: GMT + 2 Години

Нова тема   Відповісти