Королівство / The Kingdom (2007) 2xUkr

Нові коментарі

Нова тема   Відповісти
Автор Повідомлення
Anonymous 







2017-08-24 10:43  
Королівство / The Kingdom (2007) 2xUkr



Жанр: бойовик, трилер, драма
Країна: США, Німеччина



Кінокомпанія: Universal Pictures, Relativity Media, Forward Pass
Режисер: Пітер Берг / Peter Berg
Актори: Джеймі Фокс / Jamie Foxx, Дженіфер Гарнер / Jennifer Garner, Джейсон Бейтман / Jason Bateman, Кріс Купер / Chris Cooper, Ашраф Бархом / Ashraf Barhom, Алі Суліман / Ali Suliman, Річард Дженкінс / Richard Jenkins, Денні Хьюстон / Danny Huston та інші

Сюжет:
Драматичний бойовик на тему конфлікту на Близькому Сході. У Саудівську Аравію відправляється команда з чотирьох агентів ФБР, щоб розслідувати теракт, що стався на американському об'єкті у цій країні, і знайти такого собі Абу Хамза, імовірно ватажка терористів.  Відразу стає зрозуміло, що місія буде не з легких. Однак американці знаходять спільну мову з представником місцевої поліції, який буде по можливості надавати команді допомогу у встановленні справедливості в цій чужій їм країні.


рейтинг MPAA: R - особам до 17 років обов'язкова присутність батьків або дорослого опікуна
Вікова категорія: 16+

Тривалість: 01:49:45
Якість:
Відео:
кодек:
розмір кадру: 720x304
бітрейт: 1934 кб/с

Аудіо # 1:
мова: українська
переклад: багатоголосий закадровий | Так Треба Продакшн
кодек: 2.0 [стерео]
бітрейт: 192 кб/с

Аудіо # 2:
мова: українська
переклад: багатоголосий закадровий | Так Треба Продакшн
ролі озвучили: Юрій Ребрик (Джеймі Фокс / Ronald Fleury), Владислав Пупков (Кріс Купер / Grant Sykes), Роман Семисал і один жіночий голос
кодек: 2.0
бітрейт: 192 кб/с
Помилки перекладу
00:17:09 - в оригіналі "Attorney General" (Генеральний прокурор) переклали і озвучили як "Генеральний етторні"
помітив п.MAKAPOHHIK, в новішому перекладі/озвученні для Воля Cine+ (Аудіо #1) цієї помилки вже немає, озвучено як "Генпрокурор"
Примітка: переклад та озвучення в Аудіо # 1 та Аудіо # 2 різні
Info
Код:
General
Complete name               : The Kingdom (2007) [2xUkr] [Hurtom].avi
Format                      : AVI
Format/Info                 : Audio Video Interleave
File size                   : 1.79 GiB
Duration                    : 1 h 49 min
Overall bit rate            : 2 332 kb/s
Movie name                  : Королівство / The Kingdom (2007)
Genre                       : бойовик, трилер, драма
Writing application         : VirtualDubModUkr 1.5.10.2 (build 2542/release)
Writing library             : VirtualDubMod build 2542/release
Original source form/Name   : Movie
Copyright                   : Hurtom & Hellywood
Comment                     : https://toloka.to/t83649

Video
ID                          : 0
Format                      : MPEG-4 Visual
Format profile              : Advanced [email protected]
Format settings, BVOP       : 1
Format settings, QPel       : No
Format settings, GMC        : No warppoints
Format settings, Matrix     : Default (MPEG)
Codec ID                    :
Codec ID/Hint               :
Duration                    : 1 h 49 min
Bit rate                    : 1 934 kb/s
Width                       : 720 pixels
Height                      : 304 pixels
Display aspect ratio        : 2.35:1
Frame rate                  : 23.976 (24000/1001) FPS
Color space                 : YUV
Chroma subsampling          : 4:2:0
Bit depth                   : 8 bits
Scan type                   : Progressive
Compression mode            : Lossy
Bits/(Pixel*Frame)          : 0.369
Stream size                 : 1.48 GiB (83%)
Writing library             : 1.2.1 (UTC 2008-12-04)

Audio #1
ID                          : 1
Format                      : AC-3
Format/Info                 : Audio Coding 3
Format settings, Endianness : Big
Codec ID                    : 2000
Duration                    : 1 h 49 min
Bit rate mode               : Constant
Bit rate                    : 192 kb/s
Channel(s)                  : 2 channels
Channel positions           : Front: L R
Sampling rate               : 48.0 kHz
Frame rate                  : 31.250 FPS (1536 SPF)
Bit depth                   : 16 bits
Compression mode            : Lossy
Stream size                 : 151 MiB (8%)
Alignment                   : Split accross interleaves
Interleave, duration        : 42  ms (1.00 video frame)
Interleave, preload duratio : 500  ms
Title                       : UKR MVO [Volya CINE+, TTP]
Service kind                : Complete Main

Audio #2
ID                          : 2
Format                      : AC-3
Format/Info                 : Audio Coding 3
Format settings, Endianness : Big
Codec ID                    : 2000
Duration                    : 1 h 49 min
Bit rate mode               : Constant
Bit rate                    : 192 kb/s
Channel(s)                  : 2 channels
Channel positions           : Front: L R
Sampling rate               : 48.0 kHz
Frame rate                  : 31.250 FPS (1536 SPF)
Bit depth                   : 16 bits
Compression mode            : Lossy
Stream size                 : 151 MiB (8%)
Alignment                   : Split accross interleaves
Interleave, duration        : 42  ms (1.00 video frame)
Interleave, preload duratio : 500  ms
Title                       : UKR MVO [Ukraina, TTP]
Service kind                : Complete Main


Джерело: &
Українські доріжки: #1 - Sando7, igor911; #2 - xslim, patriot2305. Постер - Тирік

ЗАЛИШАЙТЕСЬ ЯКОМОГА ДОВШЕ НА РОЗДАЧІ!

ЗАВАНТАЖИВ САМ - ДАЙ ЗАВАНТАЖИТИ ІНШИМ


 Трекер:    Зареєстрований   

Завантажити / скачати фільм українською



відео для новачків



 Зареєстрований:   2017-08-24 11:22
 Розмір:   1.79 GB 
 Оцінка фільму:   5.9/10 (Голосів: 23)
   
Інші релізи
   Королівство / The Kingdom (2007) AVC 2xUkr/Eng | Sub Eng igor911  4 / 0   2.48 GB   2017-08-24 13:28 
   Королівство / The Kingdom (2007) 720p 2xUkr/Eng | Sub Eng igor911  1 / 0   4.02 GB   2017-08-24 01:15 
   Королівство / The Kingdom (2007) 1080p 2xUkr/Eng | Sub Eng igor911  2 / 0   7.56 GB   2017-08-23 16:39 
Ваш часовий пояс: GMT + 2 Години

Нова тема   Відповісти