Холістичне детективне агентство Дірка Джентлі (Сезон 1) / Dirk Gently's Holistic Detective Agency (Season 1) (2016) 1080p Ukr/Eng | Sub Eng

Нові коментарі

Нова тема   Відповісти
Автор Повідомлення
Anonymous 







2017-08-23 00:35  
Холістичне детективне агентство Дірка Джентлі (Сезон 1) / Dirk Gently's Holistic Detective Agency (Season 1) (2016) 1080p Ukr/Eng | Sub Eng

Холістичне детективне агентство Дірка Джентлі (Сезон 1) / Dirk Gently's Holistic Detective Agency (Season 1) (2016) 1080p Ukr/Eng | Sub Eng


Жанр: комедія, детектив, фантастика
Країна: США, Велика Британія



Кінокомпанія: BBC America
Режисер: Макс Лендіс
Актори: Семюель Барнет, Елайджа Вуд, Крістіан Бако, Нейл Браун молодший та інші

Сюжет:
Ексцентричний приватний детектив Дірк Джентлі у свої розслідуваннях використовує холістичні методи - він вірить, що все у всесвіті взаємопов'язано. Серіал - екранізація іронічного науково-фантастичного роману Дуґласа Адамса.


Тривалість: 1 серія: ~45 хв. (цілком серій: 8)
Перелік серій
1. Горизонти / Horizons
2. Втрачено й знайдено / Lost & Found
3. Поціновувачі стін / Rogue Wall Enthusiasts
4. Що за / Watkin
5. Дуже прямоходяча людина / Very Erectus
6. Виправити все / Fix Everything
7. Озброєна душа / Weaponized Soul
8. Двоє хлопців при здоровому глузді, що займаються нормальними речима / Two Sane Guys Doing Normal Things
Якість: 1080p
Відео:
кодек:
розмір кадру: 1920 х 1080
бітрейт: 10,2 Мб/с

Аудіо # 1:
мова: українська
переклад: багатоголосий закадровий
кодек: 5.1
бітрейт: 1 509 кб/с
Інформація про озвучення

Озвучено студією "НеЗупиняйПродакшн"
Аудіо # 2:
мова: англійська
переклад: оригінал
кодек: 5.1
бітрейт: 1 509 кб/с

Джерело озвучення:


Субтитри # 1-2:
мова: англійська (повні, SDH)
тип: програмні (м'які)
формат: *.srt
Info

General
Unique ID : 199525505466153289305367135723467553587 (0x961B36EDB51526458F9AC1575767BB33)
Format :
Format version : Version 4 / Version 2
File size : 4.93 GiB
Duration : 53 min 18 s
Overall bit rate : 13.2 Mb/s
Encoded date : UTC 2017-08-22 19:41:10
Writing application : v6.1.0 ('Old Devil') built on Mar 2 2013 14:32:37
Writing library : libebml v1.3.0 + v1.4.0
Cover : Yes
Attachments : Cover.jpg

Video
ID : 1
Format : AVC
Format/Info : Advanced Video Codec
Format profile : [email protected]
Format settings, CABAC : Yes
Format settings, ReFrames : 4 frames
Codec ID : V_MPEG4/ISO/AVC
Duration : 53 min 18 s
Bit rate : 10.2 Mb/s
Width : 1 920 pixels
Height : 1 080 pixels
Display aspect ratio : 16:9
Frame rate mode : Constant
Frame rate : 23.976 (24000/1001) FPS
Color space : YUV
Chroma subsampling : 4:2:0
Bit depth : 8 bits
Scan type : Progressive
Bits/(Pixel*Frame) : 0.206
Stream size : 3.71 GiB (75%)
Title : Dirk Gently's Holistic Detective Agency. S01.E01 (2016) 1080p [Ukr.Eng Sub.Eng] [Hurtom]
Writing library : core 148 r2744 b97ae06
Encoding settings : cabac=1 / ref=4 / deblock=1:-3:-3 / analyse=0x3:0x113 / me=umh / subme=8 / psy=1 / psy_rd=1.00:0.00 / mixed_ref=1 / me_range=32 / chroma_me=1 / trellis=1 / 8x8dct=1 / cqm=0 / deadzone=21,11 / fast_pskip=1 / chroma_qp_offset=-2 / threads=24 / lookahead_threads=4 / sliced_threads=0 / nr=0 / decimate=1 / interlaced=0 / bluray_compat=0 / constrained_intra=0 / bframes=3 / b_pyramid=2 / b_adapt=2 / b_bias=0 / direct=3 / weightb=1 / open_gop=0 / weightp=2 / keyint=240 / keyint_min=24 / scenecut=40 / intra_refresh=0 / rc_lookahead=50 / rc=2pass / mbtree=1 / bitrate=10229 / ratetol=1.0 / qcomp=0.60 / qpmin=0 / qpmax=69 / qpstep=4 / cplxblur=20.0 / qblur=0.5 / ip_ratio=1.40 / aq=3:0.80
Language : English
Default : Yes
Forced : No

Audio #1
ID : 2
Format :
Format/Info : Digital Theater Systems
Mode : 16
Format settings, Endianness : Big
Codec ID : A_DTS
Duration : 53 min 18 s
Bit rate mode : Constant
Bit rate : 1 509 kb/s
Channel(s) : 6 channels
Channel positions : Front: L C R, Side: L R, LFE
Sampling rate : 48.0 kHz
Frame rate : 93.750 FPS (512 spf)
Bit depth : 16 bits
Compression mode : Lossy
Stream size : 575 MiB (11%)
Title : MVO | NeZupynyayProduction | 5.1 | 1 509 kbps
Language : Ukrainian
Default : Yes
Forced : No

Audio #2
ID : 3
Format :
Format/Info : Digital Theater Systems
Mode : 16
Format settings, Endianness : Big
Codec ID : A_DTS
Duration : 53 min 18 s
Bit rate mode : Constant
Bit rate : 1 509 kb/s
Channel(s) : 6 channels
Channel positions : Front: L C R, Side: L R, LFE
Sampling rate : 48.0 kHz
Frame rate : 93.750 FPS (512 spf)
Bit depth : 24 bits
Compression mode : Lossy
Stream size : 575 MiB (11%)
Title : Original
Language : English
Default : No
Forced : No

Text #1
ID : 4
Format : UTF-8
Codec ID : S_TEXT/UTF8
Codec ID/Info : UTF-8 Plain Text
Title : Original
Language : English
Default : No
Forced : No

Text #2
ID : 5
Format : UTF-8
Codec ID : S_TEXT/UTF8
Codec ID/Info : UTF-8 Plain Text
Title : Original | SDH
Language : English
Default : No
Forced : No

Menu
00:00:00.000 : en:00:00:00.000
00:07:58.728 : en:00:07:58.728
00:17:15.910 : en:00:17:15.910
00:27:09.878 : en:00:27:09.878
00:36:14.547 : en:00:36:14.547
00:45:12.001 : en:00:45:12.001
00:52:46.872 : en:00:52:46.872
Скріншоти









Джерело:
Подяки:
Локалізація постера: DanyZemlyanoy
За синхронізацію доріжки в 5.1 / 1 509 кб/с під : krigg070
За озвучку: "НеЗупиняйПродакшн"



Не забуваємо дякувати!


Авторський реліз (завантажувати можна без реєстрації)
 Трекер:    Зареєстрований   

Завантажити / скачати серіал українською



відео для новачків



 Зареєстрований:   2017-08-23 00:50
 Розмір:   30.94 GB 
 Оцінка серіалу:   9.9/10 (Голосів: 11)
   
НеЗупиняйПродакшн 
VIP


З нами з: 28.07.15
Востаннє: 28.05.20
Повідомлень: 1183

2017-09-07 20:48  
Розпочато збір коштiв на озвучення 2 сезону

ruarai 
Новенький


З нами з: 09.09.14
Востаннє: 10.05.20
Повідомлень: 8

2018-11-16 15:20  
Велике дякую тим двом особам які вже тиждень роздають мені щодня вдень і вночі цей серіал я думав що вже ніде його не скачаю Happy шкода що не зможу його роздавати в найблищі 2 місяціSad (1)
Ваш часовий пояс: GMT + 2 Години

Нова тема   Відповісти