Сек'юриті (Охоронець) / Security (2017) 720p Ukr/Eng | Sub Eng

Нові коментарі

Нова тема   Відповісти
Автор Повідомлення
Anonymous 







2017-08-22 16:57  
Сек'юриті (Охоронець) / Security (2017) 720p Ukr/Eng | Sub Eng

Сек'юриті (Охоронець) / Security (2017) 720p Ukr/Eng | Sub Eng


Жанр: бойовик
Країна: США



Кінокомпанія: Nu Boyana Film Studios, Nu Image / Millennium Films, Security Productions
Режисер: Ален Дерошер / Alain Desrochers
Актори: Антоніо Бандерас / Antonio Banderas, Бен Кінґслі / Ben Kingsley, Ліам МакІнтайр / Liam McIntyre, Габріелла Райт / Gabriella Wright, Чед Ліндберг / Chad Lindberg, Кунг Ле / Cung Le, Яна Марінова / Yana Marinova, Марк Сміт / Mark Rhino Smith, Башар Рахаль / Bashar Rahal, Дзіро Ван / Jiro Wang та інші

Сюжет:
Колишній військовий відчайдушно шукає собі роботу, і він готовий на все заради того, щоб прогодувати свою сім'ю. Будь-яка робота йому підійде. Йому пропонують бути охоронцем в торговому центрі в одному з неблагополучних районів міста. У свою першу ніч на новій роботі у двері постукала налякана дівчинка, яка втекла від жахливого переслідування. Поліцейські її везли на суд як свідка злочину, але по дорозі їх наздогнала банда головорізів. Дівчинка втекла звідти. Але банда на чолі з неврівноваженим соціопатом йде за нею. Всі охоронці торгового центру стануть не захист бідолахи, чого б їм це не коштувало.
Офіційний український трейлер:

Рейтинг MPAA: R - особам до 17 років обов'язкова присутність батьків або дорослого опікуна
Вікова категорія: 16+
Тривалість: 01:31:52
Якість: 720p
Відео:
кодек:
розмір кадру: 1280х536
бітрейт: 5500 кб/с

Аудіо:
мова: українська
переклад: професійний дубльований | Tretyakoff production
кодек: 2.0 [стерео]
бітрейт: 192 кб/с

Аудіо # 2:
мова: англійська
переклад: оригінал
кодек: 5.1
бітрейт: 640 кб/с

Субтитри # 1-2:
мова: англійська (повні, SDH Colored)
тип: програмні (м'які)
формат: *.srt

Збережено оригінальні розділи, як на Blu-ray
Info
Код:
Complete name               : Security (2017) [Ukr,Eng sub.Eng] 720p [Hurtom].
Format                      :
Format version              : Version 4 / Version 2
File size                   : 4.06 GiB
Duration                    : 1 h 31 min
Overall bit rate            : 6 327 kb/s
Movie name                  : Сек'юриті / Охоронець / Security (2017) [Ukr,Eng sub.Eng] 720p [Hurtom]
Cover                       : Yes
Attachments                 : cover.jpg

Video
ID                          : 1
Format                      : AVC
Format/Info                 : Advanced Video Codec
Format profile              : [email protected]
Format settings, CABAC      : Yes
Format settings, RefFrames  : 12 frames
Codec ID                    : V_MPEG4/ISO/AVC
Duration                    : 1 h 31 min
Bit rate                    : 5 500 kb/s
Width                       : 1 280 pixels
Height                      : 536 pixels
Display aspect ratio        : 2.40:1
Frame rate mode             : Constant
Frame rate                  : 23.976 (24000/1001) FPS
Color space                 : YUV
Chroma subsampling          : 4:2:0
Bit depth                   : 8 bits
Scan type                   : Progressive
Bits/(Pixel*Frame)          : 0.334
Stream size                 : 3.53 GiB (87%)
Title                       : Сек'юриті / Охоронець / Security (2017) 720p [ExKinoRay]
Writing library             : core 148 r2705 3f5ed56
Encoding settings           : cabac=1 / ref=12 / deblock=1:-3:-3 / analyse=0x3:0x133 / me=umh / subme=11 / psy=1 / psy_rd=1.05:0.05 / mixed_ref=1 / me_range=32 / chroma_me=1 / trellis=2 / 8x8dct=1 / cqm=0 / deadzone=21,11 / fast_pskip=0 / chroma_qp_offset=-3 / threads=22 / lookahead_threads=4 / sliced_threads=0 / nr=0 / decimate=0 / interlaced=0 / bluray_compat=0 / constrained_intra=0 / bframes=8 / b_pyramid=2 / b_adapt=2 / b_bias=0 / direct=3 / weightb=1 / open_gop=0 / weightp=2 / keyint=240 / keyint_min=23 / scenecut=40 / intra_refresh=0 / rc_lookahead=50 / rc=2pass / mbtree=0 / bitrate=5500 / ratetol=1.0 / qcomp=0.60 / qpmin=0 / qpmax=69 / qpstep=4 / cplxblur=20.0 / qblur=0.5 / vbv_maxrate=50000 / vbv_bufsize=62500 / nal_hrd=none / filler=0 / ip_ratio=1.40 / pb_ratio=1.30 / aq=3:0.80
Language                    : English
Default                     : Yes
Forced                      : No

Audio #1
ID                          : 2
Format                      : AC-3
Format/Info                 : Audio Coding 3
Format settings, Endianness : Big
Codec ID                    : A_AC3
Duration                    : 1 h 31 min
Bit rate mode               : Constant
Bit rate                    : 192 kb/s
Channel(s)                  : 2 channels
Channel positions           : Front: L R
Sampling rate               : 48.0 kHz
Frame rate                  : 31.250 FPS (1536 SPF)
Bit depth                   : 16 bits
Compression mode            : Lossy
Stream size                 : 126 MiB (3%)
Title                       : Dub [Megogo, Tretyakoff production] 2.0 192 Kbps [Hurtom]
Language                    : Ukrainian
Service kind                : Complete Main
Default                     : Yes
Forced                      : Yes

Audio #2
ID                          : 3
Format                      : AC-3
Format/Info                 : Audio Coding 3
Format settings, Endianness : Big
Codec ID                    : A_AC3
Duration                    : 1 h 31 min
Bit rate mode               : Constant
Bit rate                    : 640 kb/s
Channel(s)                  : 6 channels
Channel positions           : Front: L C R, Side: L R, LFE
Sampling rate               : 48.0 kHz
Frame rate                  : 31.250 FPS (1536 SPF)
Bit depth                   : 16 bits
Compression mode            : Lossy
Stream size                 : 421 MiB (10%)
Title                       : Original, 5.1 640 Kbps
Language                    : English
Service kind                : Complete Main
Default                     : No
Forced                      : No

Text #1
ID                          : 4
Format                      : UTF-8
Codec ID                    : S_TEXT/UTF8
Codec ID/Info               : UTF-8 Plain Text
Duration                    : 1 h 25 min
Bit rate                    : 43 b/s
Count of elements           : 1018
Stream size                 : 27.4 KiB (0%)
Title                       : Eng Full
Language                    : English
Default                     : No
Forced                      : No

Text #2
ID                          : 5
Format                      : UTF-8
Codec ID                    : S_TEXT/UTF8
Codec ID/Info               : UTF-8 Plain Text
Duration                    : 1 h 27 min
Bit rate                    : 53 b/s
Count of elements           : 1099
Stream size                 : 34.2 KiB (0%)
Title                       : Eng SDH Colored
Language                    : English
Default                     : No
Forced                      : No

Menu
00:00:00.000                : en:00:00:00.000
00:17:03.439                : en:00:17:03.439
00:29:17.255                : en:00:29:17.255
00:40:00.189                : en:00:40:00.189
00:53:50.018                : en:00:53:50.018
01:06:05.628                : en:01:06:05.628
01:18:38.714                : en:01:18:38.714
01:27:50.474                : en:01:27:50.474


Джерело: &
Подяка за українську доріжку п.dark_inwhite


 Трекер:    Зареєстрований   

Завантажити / скачати фільм українською



відео для новачків



 Зареєстрований:   2017-08-22 20:12
 Розмір:   4.06 GB 
 Оцінка фільму:   6.1/10 (Голосів: 35)
   
Інші релізи
spyker01 
Відео Гуртом - підтримка та поширення
Відео Гуртом - підтримка та поширення


З нами з: 07.02.10
Востаннє: 20.06.20
Повідомлень: 41

2017-08-23 01:25  
до 25 хв ще дивитьсь можна, далі кліше...
фільм на 3

event99 
Новенький


З нами з: 09.04.14
Востаннє: 13.09.20
Повідомлень: 22

2017-08-23 05:56  
Навіть не знаю від якого фільму тут більше "Тупий та ще тупіший" чи "Один вдома".
Абсолютно не вартий уваги, 3/10.

rosinant 
Частий відвідувач


З нами з: 18.04.17
Востаннє: 28.09.17
Повідомлень: 32

2017-08-24 11:26  
event99 написано:
Абсолютно не вартий уваги

а жаль, так давно вже не бачив Антоніо...

GelioS_(UA) 
Свій


З нами з: 14.06.15
Востаннє: 20.09.20
Повідомлень: 64

2017-08-30 13:59  
А мені фільм сподобався)))) Легенький, такий собі, бойовичок)))
При перегляді чомусь нагадався фільм "Харлей Девідсон і ковбой Мальборо"

0mage0 
VIP


З нами з: 06.10.15
Востаннє: 22.09.20
Повідомлень: 696

2017-09-13 11:38  
Фільм мав би перекладатися як охоронець чи охорона, а не сек'юріті. Загалом фільм непоганий, початок нагадує Один вдома Happy
От тільки не зрозуміло, коли приїхали бандити у формі маршалів, чому Бандераса не здивувало, що вони не лізуть у бійку, а просять дівчину під кулями бігти до них? Адже це майже гарантована смерть для неї? Ну і цей головний мафіозі, з такою усмішкою спостерігає як гинуть його бійці,
ніби у нього черга на працевлаштування.

Wensun 
Поважний учасник


З нами з: 20.01.09
Востаннє: 17.09.20
Повідомлень: 180

2017-09-19 22:41  
легоньке кіно, але шоб погане то ні. нормальне, на один раз
Пуй Хутін 
Новенький


З нами з: 11.02.17
Востаннє: 18.08.19
Повідомлень: 2

2017-09-30 22:28  
Після перегляду так і не зрозумів, чи це бойовик, чи комедія. Мабуть Бандерасу сильно гроші були потрібні, бо щось останнім часом не сильно було його видно.
Tory_x 
Новенький


З нами з: 16.05.18
Востаннє: 01.09.20
Повідомлень: 13

2019-12-03 01:40  
А мені норм фільм, легкий бойовик, щоб розслабитись =)
Tory_x 
Новенький


З нами з: 16.05.18
Востаннє: 01.09.20
Повідомлень: 13

2019-12-03 14:05  
Вже пів доби не можу почати скачувати ані цей реліз, ані "Сек'юриті (Охоронець) / Security (2017) mini 1080p H.265 Ukr/Eng". Сіди є, закачка не починається. Скажіть будь ласка, чому так і що робити? ((

upd:
нарешті закачалось, дякую дуже!

Anonymous 







2019-12-03 14:52  
Tory_x написано:
чому так і що робити?

https://toloka.to/t2382 https://toloka.to/t2846

Додано через 2 хвилини 35 секунд:

у випадку "сірої" ір-адреси треба або чекати появи на роздачі піра з відкритим портом або спробувати завантажити з іншого підключення/компа з "білою" ір-адресою та відкритим портом.

Додано через 9 хвилин 14 секунд:

Tory_x написано:
Рейтинг: 0.12

також можливо, що завантаженню заважає низький рейтинг (треба мінімум 0,15) https://toloka.to/t35477

Tory_x 
Новенький


З нами з: 16.05.18
Востаннє: 01.09.20
Повідомлень: 13

2019-12-07 00:16  
Anonymous
ясно, дякую)

Ваш часовий пояс: GMT + 2 Години

Нова тема   Відповісти