Лісова братва / Лісова братія / Over the Hedge (2006) 1080p 2xUkr/Eng | Sub Eng

Нові коментарі

Нова тема   Відповісти
Автор Повідомлення
Anonymous 







2017-08-20 08:18  
Лісова братва / Лісова братія / Over the Hedge (2006) 1080p 2xUkr/Eng | Sub Eng

Лісова братва / Лісова братія / Over the Hedge (2006) 1080p 2xUkr/Eng | Sub Eng


Жанр: анімація, комедія, пригодницький, сімейний
Країна: США



Кінокомпанія: DreamWorks Animation, Pacific Data Images (PDI)
Режисер: Тім Джонсон / Tim Johnson, Кері Кіркпатрік / Karey Kirkpatrick
Актори: Брюс Віліс / Bruce Willis, Ґаррі Шендлінг / Garry Shandling, Стів Карелл / Steve Carell, Томас Хейден Черч / Thomas Haden Church, Омід Джалілі / Omid Djalili, Елісон Джені / Allison Janney, Авріл Лавін / Avril Lavigne, Юджин Леві / Eugene Levy, Нік Нолті / Nick Nolte, Кетрін О’Хара / Catherine O'Hara, Вільям Шетнер / William Shatner, Вонда Сайкс / Wanda Sykes та інші

Сюжет:
Допитливий єнот і його найкращий друг - черепаха-меланхолік - вирішили дізнатися, що ж знаходиться за живоплотом, який відокремлює їх лісовий масив від галасливих вулиць, населених дивними створіннями, яких називають людьми. Що чекає цих допитливих хлопців на вулицях міста? Навіть страшно собі уявити!


Тривалість: 01:23:13
Якість: 1080p
Відео:
кодек:
розмір кадру: 1920 х 1080
бітрейт: 6483 кб/с [crf=18]

Аудіо # 1:
мова: українська
переклад: багатоголосий закадровий | Так Треба Продакшн
кодек: 2.0 [стерео]
бітрейт: 192 кб/с
примітка 1: озвучення те ж саме як і з К1, тут лише якісніший запис і в справжньому стерео
примітка 2: на відміну від багатьох попередніх релізів також озвучено сцену після титрів

Аудіо # 2:
мова: українська
переклад: багатоголосий закадровий
кодек: 2.0
бітрейт: 192 кб/с

Аудіо # 3:
мова: англійська
переклад: оригінал
кодек: 5.1
бітрейт: 640 кб/с

Субтитри # 1:
мова: українська (форсовані на діалог під час титрів)
тип: програмні (м'які)
формат: *.srt

Субтитри # 2-3:
мова: англійська (повні, SDH)
тип: програмні (м'які)
формат: *.srt
Info
Код:
Complete name               : Over the Hedge (2006) [2xUkr,Eng sub.Eng] 1080p [Hurtom].
Format                      :
Format version              : Version 4 / Version 2
File size                   : 4.37 GiB
Duration                    : 1 h 23 min
Overall bit rate mode       : Variable
Overall bit rate            : 7 510 kb/s
Movie name                  : Лісова братва / Лісова братія / Over the Hedge (2006) [2xUkr,Eng sub.Eng] 1080p [Hurtom]
Released date               : 2006
Cover                       : Yes
Comment                     : http://www.imdb.com/title/tt0327084/
Attachments                 : cover.jpg
ARTIST                      :  Брюс Віліс / Bruce Willis, Ґаррі Шендлінг / Garry Shandling, Стів Карелл / Steve Carell, Томас Хейден Черч / Thomas Haden Church, Омід Джалілі / Omid Djalili, Елісон Джені / Allison Janney, Авріл Лавін / Avril Lavigne, Юджин Леві / Eugene Levy, Нік Нолті / Nick Nolte, Кетрін О’Хара / Catherine O'Hara, Вільям Шетнер / William Shatner, Вонда Сайкс / Wanda Sykes та інші
DIRECTOR                    : Тім Джонсон / Tim Johnson, Кері Кіркпатрік / Karey Kirkpatrick
GENRE                       : анімація, комедія, пригодницький, сімейний
SYNOPSIS                    : Допитливий єнот і його найкращий друг - черепаха-меланхолік - вирішили дізнатися, що ж знаходиться за живоплотом, який відокремлює їх лісовий масив від галасливих вулиць, населених дивними створіннями, яких називають людьми. Що чекає цих допитливих хлопців на вулицях міста? Навіть страшно собі уявити!
Url                         : https://toloka.to/t83582

Video
ID                          : 1
Format                      : AVC
Format/Info                 : Advanced Video Codec
Format profile              : [email protected]
Format settings, CABAC      : Yes
Format settings, RefFrames  : 4 frames
Codec ID                    : V_MPEG4/ISO/AVC
Duration                    : 1 h 23 min
Bit rate mode               : Variable
Bit rate                    : 6 483 kb/s
Maximum bit rate            : 15.0 Mb/s
Width                       : 1 920 pixels
Height                      : 1 080 pixels
Display aspect ratio        : 16:9
Frame rate mode             : Constant
Frame rate                  : 23.976 (24000/1001) FPS
Color space                 : YUV
Chroma subsampling          : 4:2:0
Bit depth                   : 8 bits
Scan type                   : Progressive
Bits/(Pixel*Frame)          : 0.130
Stream size                 : 3.77 GiB (86%)
Title                       : Лісова братва / Лісова братія / Over the Hedge (2006) 1080p [Amazon, NTb]
Writing library             : core 148 r2623 d5b2374
Encoding settings           : cabac=1 / ref=4 / deblock=1:-1:-1 / analyse=0x3:0x133 / me=umh / subme=9 / psy=1 / psy_rd=1.00:0.15 / mixed_ref=1 / me_range=24 / chroma_me=1 / trellis=2 / 8x8dct=1 / cqm=0 / deadzone=21,11 / fast_pskip=1 / chroma_qp_offset=-3 / threads=34 / lookahead_threads=5 / sliced_threads=0 / nr=150 / decimate=1 / interlaced=0 / bluray_compat=0 / constrained_intra=0 / bframes=8 / b_pyramid=2 / b_adapt=2 / b_bias=0 / direct=3 / weightb=1 / open_gop=0 / weightp=2 / keyint=120 / keyint_min=61 / scenecut=0 / intra_refresh=0 / rc_lookahead=120 / rc=crf / mbtree=1 / crf=18.0 / qcomp=0.60 / qpmin=0 / qpmax=69 / qpstep=4 / vbv_maxrate=15000 / vbv_bufsize=31250 / crf_max=0.0 / nal_hrd=vbr / filler=0 / ip_ratio=1.40 / aq=3:1.00
Language                    : English
Default                     : Yes
Forced                      : Yes
Color range                 : Limited
Color primaries             : BT.709
Transfer characteristics    : BT.709
Matrix coefficients         : BT.709

Audio #1
ID                          : 2
Format                      : AC-3
Format/Info                 : Audio Coding 3
Format settings, Endianness : Big
Codec ID                    : A_AC3
Duration                    : 1 h 23 min
Bit rate mode               : Constant
Bit rate                    : 192 kb/s
Channel(s)                  : 2 channels
Channel positions           : Front: L R
Sampling rate               : 48.0 kHz
Frame rate                  : 31.250 FPS (1536 SPF)
Bit depth                   : 16 bits
Compression mode            : Lossy
Stream size                 : 114 MiB (3%)
Title                       : MVO [Inter, TTP] 2.0 [stereo] 192 Kbps [Hurtom-igor911, ratbol]
Language                    : Ukrainian
Service kind                : Complete Main
Default                     : Yes
Forced                      : Yes

Audio #2
ID                          : 3
Format                      : AC-3
Format/Info                 : Audio Coding 3
Format settings, Endianness : Big
Codec ID                    : A_AC3
Duration                    : 1 h 23 min
Bit rate mode               : Constant
Bit rate                    : 192 kb/s
Channel(s)                  : 2 channels
Channel positions           : Front: L R
Sampling rate               : 48.0 kHz
Frame rate                  : 31.250 FPS (1536 SPF)
Bit depth                   : 16 bits
Compression mode            : Lossy
Stream size                 : 114 MiB (3%)
Title                       : MVO [Novyj] 2.0 192 Kbps [Hurtom-MutuLI, xslim]
Language                    : Ukrainian
Service kind                : Complete Main
Default                     : No
Forced                      : No

Audio #3
ID                          : 4
Format                      : AC-3
Format/Info                 : Audio Coding 3
Format settings, Endianness : Big
Codec ID                    : A_AC3
Duration                    : 1 h 23 min
Bit rate mode               : Constant
Bit rate                    : 640 kb/s
Channel(s)                  : 6 channels
Channel positions           : Front: L C R, Side: L R, LFE
Sampling rate               : 48.0 kHz
Frame rate                  : 31.250 FPS (1536 SPF)
Bit depth                   : 16 bits
Compression mode            : Lossy
Stream size                 : 381 MiB (9%)
Title                       : Original, 5.1 640 kbps
Language                    : English
Service kind                : Complete Main
Default                     : No
Forced                      : No

Text #1
ID                          : 5
Format                      : UTF-8
Codec ID                    : S_TEXT/UTF8
Codec ID/Info               : UTF-8 Plain Text
Duration                    : 1 min 2 s
Bit rate                    : 225 b/s
Count of elements           : 25
Stream size                 : 1.73 KiB (0%)
Title                       : Ukr forced [Hurtom-igor911]
Language                    : Ukrainian
Default                     : Yes
Forced                      : Yes

Text #2
ID                          : 6
Format                      : UTF-8
Codec ID                    : S_TEXT/UTF8
Codec ID/Info               : UTF-8 Plain Text
Duration                    : 1 h 22 min
Bit rate                    : 64 b/s
Count of elements           : 1118
Stream size                 : 38.9 KiB (0%)
Title                       : Eng Full
Language                    : English
Default                     : No
Forced                      : No

Text #3
ID                          : 7
Format                      : UTF-8
Codec ID                    : S_TEXT/UTF8
Codec ID/Info               : UTF-8 Plain Text
Duration                    : 1 h 22 min
Bit rate                    : 79 b/s
Count of elements           : 1451
Stream size                 : 48.1 KiB (0%)
Title                       : Eng SDH
Language                    : English
Default                     : No
Forced                      : No


Джерело: &
Подяки: за запис з Інтера - п.ratbol'у, зведення - igor911, за доріжку з Нового - панам xslim'у, MutuLI, BenderBEST'у (HDClub), за постер - п.Тирік


 Трекер:    Зареєстрований   

Завантажити / скачати мультфільм українською



відео для новачків



 Зареєстрований:   2017-08-20 10:28
 Розмір:   4.37 GB 
 Оцінка мультфільму:   5.7/10 (Голосів: 23)
   
Інші релізи
-VJ- 
VIP


З нами з: 01.11.09
Востаннє: 22.02.20
Повідомлень: 735

2017-08-22 21:19  
А чому б не приклеїти до удвічі більшого розміру з роздачі ethan cole?
Anonymous 







2017-08-22 21:22  
-VJ-, бо тут як не дивно, краща якість.

Додано через 1 хвилину 19 секунд:

*згідно відгуків на ейчдіклабі

asmforce 
Новенький


З нами з: 30.05.14
Востаннє: 22.02.20
Повідомлень: 11

2017-10-11 21:46  
Дідько, й тут назва запозичена в москалів. Sad (1)

Первинна назва кіна — «За живоплотом» чи «За парканом». Натомість «братва» — то взагалі таке слівце, що вуличним криміналом відгонить.

trofum911 
Поважний учасник


З нами з: 31.01.12
Востаннє: 22.02.20
Повідомлень: 166

2019-07-29 19:15  
Народ, дайте швидкості будь ласка!

Дуже вам дякую за швидкість )

Ваш часовий пояс: GMT + 2 Години

Нова тема   Відповісти