Загублене місто Z / The Lost City of Z (2016) 3xUkr

Нові коментарі

Нова тема   Відповісти
Автор Повідомлення
Anonymous 







2017-08-19 18:34  
Загублене місто Z / The Lost City of Z (2016) 3xUkr

Загублене місто Z / The Lost City of Z (2016) 3xUkr

Жанр: біографічний, драма, пригодницький
Країна: США



Кінокомпанія: Keep Your Head, MICA Entertainment, MadRiver Pictures
Режисер: Джеймс Ґрей / James Gray
Актори: Чарлі Ганнем / Charlie Hunnam, Роберт Паттінсон / Robert Pattinson, Сієнна Міллер / Sienna Miller, Том Голланд / Tom Holland, Ангус Макфадьєн / Angus Macfadyen, Едвард Ешлі / Edward Ashley, Деніел Гаттлстоун / Daniel Huttlestone, Іан МакДермід / Ian McDiarmid, Франко Неро / Franco Nero, Гаррі Меллінг / Harry Melling та інші

Сюжет:
Полковник Персі Фоссет – член Королівського Географічного товариства, людина, яка поклала своє життя на вівтар вивчення Південної Америки. У період з 1906 по 1924 роки він сім разів побував у центральних регіонах Бразилії. Його головною метою було знайти загублене місто Z, як Фоссет сам його назвав. Багато хто вважав, що це і є міфічний Ельдорадо. Він вирішив зробити останню експедицію в 1925-му році. Персі Фоссет зник у джунглях Бразилії разом зі своєю групою. Там з ним могло статися все, що завгодно... Чи зможе хтось розгадати таємницю зникнення експедиції?
Офіційний український трейлер:

Рейтинг MPAA: PG-13 - дітям до 13 років перегляд не бажаний
Вікова категорія: 12+
Тривалість: 02:21:14
Якість:
Відео:
кодек:
розмір кадру: 720 х 304
бітрейт: 2040 кб/с

Аудіо # 1:
мова: українська
переклад: багатоголосий закадровий
кодек: 2.0 [стерео]
бітрейт: 192 кб/с

Аудіо # 2:
мова: українська
переклад: багатоголосий закадровий | студія Tretyakoff production
кодек: 2.0 [стерео]
бітрейт: 192 кб/с

Аудіо # 3:
мова: українська
переклад: багатоголосий закадровий
кодек: 2.0 [стерео]
бітрейт: 192 кб/с
Info
Код:
General
Complete name               : The Lost City of Z (2016) [3xUkr] [Hurtom].avi
Format                      : AVI
Format/Info                 : Audio Video Interleave
Format profile              : OpenDML
File size                   : 2.60 GiB
Duration                    : 2 h 21 min
Overall bit rate            : 2 638 kb/s
Movie name                  : Загублене місто Z / The Lost City of Z (2016) [3xUkr] [Hurtom]
Recorded date               : 03.07.2020
Writing application         : VirtualDubModUkr 1.5.10.2 (build 2542/release)
Writing library             : VirtualDubMod build 2542/release
Copyright                   : Hurtom & HQClub
Comment                     : https://toloka.to/t83573

Video
ID                          : 0
Format                      : MPEG-4 Visual
Format profile              : Advanced [email protected]
Format settings             : BVOP1 / Custom Matrix
Format settings, BVOP       : 1
Format settings, QPel       : No
Format settings, GMC        : No warppoints
Format settings, Matrix     : Custom
Codec ID                    :
Codec ID/Hint               :
Duration                    : 2 h 21 min
Bit rate                    : 2 040 kb/s
Width                       : 720 pixels
Height                      : 304 pixels
Display aspect ratio        : 2.35:1
Frame rate                  : 23.976 (24000/1001) FPS
Color space                 : YUV
Chroma subsampling          : 4:2:0
Bit depth                   : 8 bits
Scan type                   : Progressive
Compression mode            : Lossy
Bits/(Pixel*Frame)          : 0.389
Stream size                 : 2.01 GiB (77%)
Writing library             : 66

Audio #1
ID                          : 1
Format                      : AC-3
Format/Info                 : Audio Coding 3
Commercial name             : Dolby Digital
Codec ID                    : 2000
Duration                    : 2 h 21 min
Bit rate mode               : Constant
Bit rate                    : 192 kb/s
Channel(s)                  : 2 channels
Channel layout              : L R
Sampling rate               : 48.0 kHz
Frame rate                  : 31.250 FPS (1536 SPF)
Compression mode            : Lossy
Stream size                 : 194 MiB (7%)
Alignment                   : Split across interleaves
Interleave, duration        : 42  ms (1.00 video frame)
Interleave, preload duratio : 500  ms
Title                       : UKR MVO [Inter]
Service kind                : Complete Main

Audio #2
ID                          : 2
Format                      : AC-3
Format/Info                 : Audio Coding 3
Commercial name             : Dolby Digital
Codec ID                    : 2000
Duration                    : 2 h 21 min
Bit rate mode               : Constant
Bit rate                    : 192 kb/s
Channel(s)                  : 2 channels
Channel layout              : L R
Sampling rate               : 48.0 kHz
Frame rate                  : 31.250 FPS (1536 SPF)
Compression mode            : Lossy
Stream size                 : 194 MiB (7%)
Alignment                   : Split across interleaves
Interleave, duration        : 42  ms (1.00 video frame)
Interleave, preload duratio : 500  ms
Title                       : UKR MVO [Tretyakoff production, Megogo]
Service kind                : Complete Main

Audio #3
ID                          : 3
Format                      : AC-3
Format/Info                 : Audio Coding 3
Commercial name             : Dolby Digital
Codec ID                    : 2000
Duration                    : 2 h 21 min
Bit rate mode               : Constant
Bit rate                    : 192 kb/s
Channel(s)                  : 2 channels
Channel layout              : L R
Sampling rate               : 48.0 kHz
Frame rate                  : 31.250 FPS (1536 SPF)
Compression mode            : Lossy
Stream size                 : 194 MiB (7%)
Alignment                   : Split across interleaves
Interleave, duration        : 42  ms (1.00 video frame)
Interleave, preload duratio : 500  ms
Title                       : UKR MVO [Volia Cine+]
Service kind                : Complete Main


Джерело: &
Подяка за українські доріжки: leicheman, kinaxem, xslim.

Історія релізу:
19.08.2017 початковий реліз AVI Ukr/Eng
03.07.2020 реліз оновлено: додано українські стереодоріжки з та , прибрано оригінальну доріжку


 Трекер:    Зареєстрований   

Завантажити / скачати фільм українською



відео для новачків



 Зареєстрований:   2020-07-03 23:40
 Розмір:   2.6 GB 
 Оцінка фільму:   7.5/10 (Голосів: 78)
 ЗАЛИШАЙТЕСЬ ЯКОМОГА ДОВШЕ НА РОЗДАЧІ! ЗАВАНТАЖИВ САМ - ДАЙ ЗАВАНТАЖИТИ ІНШИМ!
   
romashka22222 
Новенький


З нами з: 07.11.09
Востаннє: 03.08.20
Повідомлень: 23

2017-08-19 20:37  
Дякую
kovpack 
Поважний учасник


З нами з: 10.12.07
Востаннє: 01.08.20
Повідомлень: 229

2017-08-19 21:39  
Якщо під час створення торенту позначати його як "приватний", то частина користувачів (зокрема я) - не зможе його завантажити. Уже спробував кілька клієнтів - все без толку.
Anonymous 







2017-08-19 21:41  
kovpack написано:
все без толку

вимкни "HTTPS для торрентів:" в налаштуванні профіля і перезавантаж торрент.

kovpack 
Поважний учасник


З нами з: 10.12.07
Востаннє: 01.08.20
Повідомлень: 229

2017-08-19 21:45  
ооо, дяки Happy допомогло Happy
santialeks 
Свій


З нами з: 22.04.12
Востаннє: 28.07.20
Повідомлень: 94

2017-09-02 10:16  
Чудовий фільм. Рекомендую. 10/10
AnkaPartizanka 
Поважний учасник


З нами з: 08.01.17
Востаннє: 03.08.20
Повідомлень: 173

2017-09-08 09:04  
Цікавий та красивий пригодницький фільм, трошки б більше природи... Ідеальний для сіймейного перегляду
Anonymous 







2020-07-03 23:44  
Реліз оновлено: додано українські стереодоріжки з та , прибрано оригінальну доріжку
VitNi 
Поважний учасник


З нами з: 05.05.12
Востаннє: 03.08.20
Повідомлень: 174

2020-07-04 17:35  
Тупа дебільна фігня...
Ваш часовий пояс: GMT + 2 Години

Нова тема   Відповісти