Загублене місто Z / The Lost City of Z (2016) AVC Ukr/Eng | Sub Eng

Нові коментарі

Нова тема   Відповісти
Автор Повідомлення
Anonymous 







2017-08-19 18:16  
Загублене місто Z / The Lost City of Z (2016) AVC Ukr/Eng | Sub Eng

Загублене місто Z / The Lost City of Z (2016) AVC Ukr/Eng | Sub Eng

Жанр: біографічний, драма, пригодницький
Країна: США



Кінокомпанія: Keep Your Head, MICA Entertainment, MadRiver Pictures
Режисер: Джеймс Ґрей / James Gray
Актори: Чарлі Ганнем / Charlie Hunnam, Роберт Паттінсон / Robert Pattinson, Сієнна Міллер / Sienna Miller, Том Голланд / Tom Holland, Ангус Макфадьєн / Angus Macfadyen, Едвард Ешлі / Edward Ashley, Деніел Гаттлстоун / Daniel Huttlestone, Іан МакДермід / Ian McDiarmid, Франко Неро / Franco Nero, Гаррі Меллінг / Harry Melling та інші

Сюжет:
Полковник Персі Фоссет – член Королівського Географічного товариства, людина, яка поклала своє життя на вівтар вивчення Південної Америки. У період з 1906 по 1924 роки він сім разів побував у центральних регіонах Бразилії. Його головною метою було знайти загублене місто Z, як Фоссет сам його назвав. Багато хто вважав, що це і є міфічний Ельдорадо. Він вирішив зробити останню експедицію в 1925-му році. Персі Фоссет зник у джунглях Бразилії разом зі своєю групою. Там з ним могло статися все, що завгодно... Чи зможе хтось розгадати таємницю зникнення експедиції?
Офіційний український трейлер:

Рейтинг MPAA: PG-13 - дітям до 13 років перегляд не бажаний
Вікова категорія: 12+
Тривалість: 02:21:14
Якість: AVC
Відео:
кодек:
розмір кадру: 1024 х 428
бітрейт: 1603 кб/с

Аудіо # 1:
мова: українська
переклад: багатоголосий закадровий
кодек: 2.0
бітрейт: 192 кб/с

Аудіо # 2:
мова: англійська
переклад: оригінал
кодек: 5.1
бітрейт: 448 кб/с

Субтитри:
мова: англійська
тип: програмні (м'які)
формат: *.srt

Збережено оригінальні розділи, як на Blu-ray
Info
Код:
Complete name               : The Lost City of Z (2016) [Ukr,Eng sub.Eng] AVC [Hurtom].
Format                      :
Format version              : Version 4 / Version 2
File size                   : 2.21 GiB
Duration                    : 2 h 21 min
Overall bit rate            : 2 244 kb/s
Movie name                  : Загублене місто Z / The Lost City of Z (2016) [Ukr,Eng sub.Eng] AVC [Hurtom]
Released date               : 2016
Cover                       : Yes
Comment                     : http://www.imdb.com/title/tt1212428/
Attachments                 : cover.jpg
ARTIST                      : Чарлі Ганнем / Charlie Hunnam, Роберт Паттінсон / Robert Pattinson, Сієнна Міллер / Sienna Miller, Том Голланд / Tom Holland, Ангус Макфадьєн / Angus Macfadyen, Едвард Ешлі / Edward Ashley, Деніел Гаттлстоун / Daniel Huttlestone, Іан МакДермід / Ian McDiarmid, Франко Неро / Franco Nero, Гаррі Меллінг / Harry Melling та інші
DIRECTOR                    : Джеймс Ґрей / James Gray
GENRE                       : бойовик, драма, пригодницький, біографічний, історичний
SYNOPSIS                    : Полковник Персі Фоссет – член Королівського Географічного товариства, людина, яка поклала своє життя на вівтар вивчення Південної Америки. У період з 1906 по 1924 роки він сім разів побував у центральних регіонах Бразилії. Його головною метою було знайти загублене місто Z, як Фоссет сам його назвав. Багато хто вважав, що це і є міфічний Ельдорадо. Він вирішив зробити останню експедицію в 1925-му році. Персі Фоссет зник у джунглях Бразилії разом зі своєю групою. Там з ним могло статися все, що завгодно... Чи зможе хтось розгадати таємницю зникнення експедиції?...
Url                         : https://toloka.to/t83571

Video
ID                          : 1
Format                      : AVC
Format/Info                 : Advanced Video Codec
Format profile              : [email protected]
Format settings, CABAC      : Yes
Format settings, RefFrames  : 12 frames
Codec ID                    : V_MPEG4/ISO/AVC
Duration                    : 2 h 21 min
Bit rate                    : 1 603 kb/s
Width                       : 1 024 pixels
Height                      : 428 pixels
Display aspect ratio        : 2.40:1
Frame rate mode             : Constant
Frame rate                  : 23.976 (23976/1000) FPS
Color space                 : YUV
Chroma subsampling          : 4:2:0
Bit depth                   : 8 bits
Scan type                   : Progressive
Bits/(Pixel*Frame)          : 0.153
Stream size                 : 1.58 GiB (71%)
Title                       : Загублене місто Z / The Lost City of Z (2016) AVC [ExKinoRay-Enigma]
Writing library             : core 144 r2525 40bb568
Encoding settings           : cabac=1 / ref=12 / deblock=1:-1:-2 / analyse=0x3:0x113 / me=umh / subme=10 / psy=1 / psy_rd=1.00:0.00 / mixed_ref=1 / me_range=32 / chroma_me=1 / trellis=2 / 8x8dct=1 / cqm=0 / deadzone=21,11 / fast_pskip=1 / chroma_qp_offset=-2 / threads=12 / lookahead_threads=3 / sliced_threads=0 / nr=0 / decimate=0 / interlaced=0 / bluray_compat=0 / constrained_intra=0 / bframes=10 / b_pyramid=2 / b_adapt=2 / b_bias=0 / direct=3 / weightb=1 / open_gop=0 / weightp=2 / keyint=240 / keyint_min=23 / scenecut=40 / intra_refresh=0 / rc_lookahead=40 / rc=2pass / mbtree=0 / bitrate=1603 / ratetol=1.0 / qcomp=0.63 / qpmin=0 / qpmax=51 / qpstep=4 / cplxblur=20.0 / qblur=0.5 / vbv_maxrate=50000 / vbv_bufsize=62500 / nal_hrd=none / filler=0 / ip_ratio=1.40 / pb_ratio=1.30 / aq=3:0.80
Language                    : English
Default                     : Yes
Forced                      : No
Color range                 : Limited
Color primaries             : BT.709
Transfer characteristics    : BT.709
Matrix coefficients         : BT.709

Audio #1
ID                          : 2
Format                      : AC-3
Format/Info                 : Audio Coding 3
Format settings, Endianness : Big
Codec ID                    : A_AC3
Duration                    : 2 h 21 min
Bit rate mode               : Constant
Bit rate                    : 192 kb/s
Channel(s)                  : 2 channels
Channel positions           : Front: L R
Sampling rate               : 48.0 kHz
Frame rate                  : 31.250 FPS (1536 SPF)
Bit depth                   : 16 bits
Compression mode            : Lossy
Stream size                 : 194 MiB (9%)
Title                       : MVO [Megogo] 2.0 192 Kbps [Hurtom]
Language                    : Ukrainian
Service kind                : Complete Main
Default                     : Yes
Forced                      : Yes

Audio #2
ID                          : 3
Format                      : AC-3
Format/Info                 : Audio Coding 3
Format settings, Endianness : Big
Codec ID                    : A_AC3
Duration                    : 2 h 21 min
Bit rate mode               : Constant
Bit rate                    : 448 kb/s
Channel(s)                  : 6 channels
Channel positions           : Front: L C R, Side: L R, LFE
Sampling rate               : 48.0 kHz
Frame rate                  : 31.250 FPS (1536 SPF)
Bit depth                   : 16 bits
Compression mode            : Lossy
Stream size                 : 453 MiB (20%)
Title                       : Original, 5.1 448 Kbps
Language                    : English
Service kind                : Complete Main
Default                     : No
Forced                      : No

Text
ID                          : 4
Format                      : UTF-8
Codec ID                    : S_TEXT/UTF8
Codec ID/Info               : UTF-8 Plain Text
Duration                    : 2 h 8 min
Bit rate                    : 43 b/s
Count of elements           : 1380
Stream size                 : 41.5 KiB (0%)
Title                       : Eng full
Language                    : English
Default                     : No
Forced                      : No

Menu
00:00:00.000                : en:00:00:00.000
00:08:21.751                : en:00:08:21.751
00:15:32.849                : en:00:15:32.849
00:21:29.038                : en:00:21:29.038
00:27:10.045                : en:00:27:10.045
00:34:57.637                : en:00:34:57.637
00:44:59.113                : en:00:44:59.113
00:49:36.432                : en:00:49:36.432
00:58:25.919                : en:00:58:25.919
01:04:43.338                : en:01:04:43.338
01:11:10.600                : en:01:11:10.600
01:21:22.294                : en:01:21:22.294
01:27:42.424                : en:01:27:42.424
01:30:42.854                : en:01:30:42.854
01:39:46.230                : en:01:39:46.230
01:43:59.984                : en:01:43:59.984
01:51:40.193                : en:01:51:40.193
01:56:11.089                : en:01:56:11.089
02:01:43.046                : en:02:01:43.046
02:08:34.373                : en:02:08:34.373
Ще скріншоти
Джерело: &
Подяка за український звук п.leicheman.


 Трекер:    Зареєстрований   

Завантажити / скачати фільм українською



відео для новачків



 Зареєстрований:   2017-08-19 18:26
 Розмір:   2.21 GB 
 Оцінка фільму:   7.6/10 (Голосів: 65)
   
Інші релізи
Arcon Sarkel 
Попереджень: 2
Попереджень: 2 


З нами з: 04.03.16
Востаннє: 19.09.17
Повідомлень: 126

2017-08-20 02:41  
Цікавий фільм, раджу. Кумедно вразило як тубільці-рибалки труїли рибу в річці, а потім збирали ніби стиглі яблука з долівки.
Форкуш 
VIP


З нами з: 03.02.10
Востаннє: 19.09.17
Повідомлень: 1857

2017-08-21 09:13  
Цікавий фільм... Малодинамічний правда, але історія заслуговує на захоплення бритами. 8/10
madagaskar1 
VIP


З нами з: 08.05.14
Востаннє: 19.09.17
Повідомлень: 297

2017-08-21 09:16  
місцями нуднуватий, на один раз фільм, 5/10
Webber001 
Новенький


З нами з: 08.09.16
Востаннє: 17.09.17
Повідомлень: 7

2017-08-21 21:13  
Як сказали вище недостатньо динаміки, трошки б йому динаміки, а так подивитись один раз можна
tpolit 
Поважний учасник


З нами з: 10.01.15
Востаннє: 19.09.17
Повідомлень: 153

2017-08-21 22:52  
Дуже нудний фільм. Так і не зміг до кінця додивитися.
atman_valery 
Частий відвідувач


З нами з: 12.01.11
Востаннє: 18.09.17
Повідомлень: 42

2017-08-22 15:32  
часом перемотував. знав би не дивився. але то моя думка.
bissrib 
Частий відвідувач


З нами з: 04.06.12
Востаннє: 17.09.17
Повідомлень: 39

2017-08-23 10:31  
ОСКАРОНОНИХ на афіші — це сильно. Happy
Anonymous 







2017-08-23 11:06  
bissrib, дійсно, хоча обкладинка офіційна, я лише прибрав рекламу, але цей ґандж не помітив.
trasa 
Новенький


З нами з: 16.01.10
Востаннє: 12.09.17
Повідомлень: 9

2017-08-23 20:41  
Як на мене, ця стрічка вчить доброму, вічному і її варто подивитися. Прагнення людини до незвіданого закладене в людині від народження, тільки з часом буття затягує у свої тенета. А ця людина не скорилася. Акторська гра, як на мене, чудова. Фільм не пустий.
volodymyr_sav 
VIP


З нами з: 07.10.13
Востаннє: 17.09.17
Повідомлень: 1140

2017-08-27 10:40  
Засноване на реальній, але неймовірній історії - написано на постері, і в мене питання після перегляду: Звідки ви знаєте, що історія реальна?
Адже батько з сином так і не повернулися. Це була перша і остання мандрівка 23річного хлопця
і не ясно чи він прожив щасливе життя з голою туземкою і мав купу дітей (як наш Той,ХтоПройшовКрізьВогонь - краще вже глянути цей фільм він набагато цікавіший), бо вони знайшли місто і їх не випустили, щоб не видати таємницю чи їх захавали в перший же вечір, а обсмоктані кісточки виложили на почесному місці?
Справді чудова гра акторів, особливо Сієни, доля жінки, що чверть століття чекала сина й чоловіка вражає і гра захоплює.
Фільм аж занадто нудний та філософський, разом з тим ніяких шикарних чи аж настільки реальних деталей тут так і не показали, тому не розумію обмеження для віку дітей, макет засмаженого тіла на кострі - не причина.
3/10 - примітивно, Нерекомендую

Siegfried 
Свій


З нами з: 01.11.11
Востаннє: 18.09.17
Повідомлень: 132

2017-09-18 12:32  
Якщо хтось сподівався побачити цікавий, захопливий, пригодницький фільм – то його тут нема.

Зате тут є нудний, млявий, неінтересний мИлодраматичний «хвільм» з необгрунтовано довгим хронометражем.

Розчарування.

Абсолютно НЕ вартий часу і уваги.

Тільки за природу, тематику і акторів на чоловічих ролях: 3 з 10.

mur4v3y 
Новенький


З нами з: 31.10.15
Востаннє: 19.09.17
Повідомлень: 21

2017-09-18 13:04  
Монтаж, задумки, загальні плани і зйомки природи, рухи акторів під час пересування лісом і річкою - все дуже незграбно, вибачте. Я не так щоб дуже захоплювався грою Ганнема чи Патінсона, але можу зауважити, що виглядає якось навіть навмисно погано - десь недотиснуто, десь аж занадто натужно.

Я перепрошую окремо за порівняння, але стрічки вийшли майже одночасно - "Король Артур" і його режисер точно влучили в амплуа Ганнема (хоча після стількох років "Синів Анархії і думати нема чого) - такого собі моторного парубка, бандюгана з добре розвинутим мозком, "порядного гопніка".

А тут багатодітний майор з напівблагородної родини якось зовсім не те.

Що казати - побуду на роздачі ще трохи, якщо раптом хтось його буде завантажувати Happy) а потім - до смітника цей фільм.

Victor_Scythian 
Свій


З нами з: 06.01.17
Востаннє: 19.09.17
Повідомлень: 56

2017-09-19 11:05  
Дякую за гарний фільм.
Ваш часовий пояс: GMT + 2 Години

Нова тема   Відповісти