Загублене місто Z / The Lost City of Z (2016) 720p 3xUkr/Eng | Sub Eng

Нові коментарі

Нова тема   Відповісти
Автор Повідомлення
Anonymous 







2017-08-19 14:55  
Загублене місто Z / The Lost City of Z (2016) 720p 3xUkr/Eng | Sub Eng

Загублене місто Z / The Lost City of Z (2016) 720p 3xUkr/Eng | Sub Eng

Жанр: біографічний, драма, пригодницький
Країна: США



Кінокомпанія: Keep Your Head, MICA Entertainment, MadRiver Pictures
Режисер: Джеймс Ґрей / James Gray
Актори: Чарлі Ганнем / Charlie Hunnam, Роберт Паттінсон / Robert Pattinson, Сієнна Міллер / Sienna Miller, Том Голланд / Tom Holland, Ангус Макфадьєн / Angus Macfadyen, Едвард Ешлі / Edward Ashley, Деніел Гаттлстоун / Daniel Huttlestone, Іан МакДермід / Ian McDiarmid, Франко Неро / Franco Nero, Гаррі Меллінг / Harry Melling та інші

Сюжет:
Полковник Персі Фоссет – член Королівського Географічного товариства, людина, яка поклала своє життя на вівтар вивчення Південної Америки. У період з 1906 по 1924 роки він сім разів побував у центральних регіонах Бразилії. Його головною метою було знайти загублене місто Z, як Фоссет сам його назвав. Багато хто вважав, що це і є міфічний Ельдорадо. Він вирішив зробити останню експедицію в 1925-му році. Персі Фоссет зник у джунглях Бразилії разом зі своєю групою. Там з ним могло статися все, що завгодно... Чи зможе хтось розгадати таємницю зникнення експедиції?
Офіційний український трейлер:

Рейтинг MPAA: PG-13 - дітям до 13 років перегляд не бажаний
Вікова категорія: 12+
Тривалість: 02:21:14
Якість: 720p
Відео:
кодек:
розмір кадру: 1280 х 536
бітрейт: 4053 кб/с [crf=15.7]

Аудіо # 1:
мова: українська
переклад: багатоголосий закадровий
кодек: 2.0 [стерео]
бітрейт: 192 кб/с

Аудіо # 2:
мова: українська
переклад: багатоголосий закадровий | студія Tretyakoff production
кодек: 2.0 [стерео]
бітрейт: 192 кб/с

Аудіо # 3:
мова: українська
переклад: багатоголосий закадровий
кодек: 2.0 [стерео]
бітрейт: 192 кб/с

Аудіо # 4:
мова: англійська
переклад: оригінал
кодек: 5.1
бітрейт: 640 кб/с

Субтитри:
мова: англійська
тип: програмні (м'які)
формат: *.srt

Збережено оригінальні розділи, як на Blu-ray
Info та log
Код:
Complete name               : The Lost City of Z (2016) [3xUkr,Eng sub.Eng] 720p [Hurtom].
Format                      :
Format version              : Version 4
File size                   : 5.20 GiB
Duration                    : 2 h 21 min
Overall bit rate            : 5 272 kb/s
Movie name                  : Загублене місто Z / The Lost City of Z (2016) [3xUkr,Eng sub.Eng] 720p [Hurtom]
Released date               : 2016
Encoded date                : UTC 2020-07-03 14:18:46
Writing application         : v48.0.0 ('Fortress Around Your Heart') 64-bit
Writing library             : libebml v1.4.0 + v1.6.0
Cover                       : Yes
Comment                     : http://www.imdb.com/title/tt1212428/
Attachments                 : cover.jpg
ARTIST                      : Чарлі Ганнем / Charlie Hunnam, Роберт Паттінсон / Robert Pattinson, Сієнна Міллер / Sienna Miller, Том Голланд / Tom Holland, Ангус Макфадьєн / Angus Macfadyen, Едвард Ешлі / Edward Ashley, Деніел Гаттлстоун / Daniel Huttlestone, Іан МакДермід / Ian McDiarmid, Франко Неро / Franco Nero, Гаррі Меллінг / Harry Melling та інші
DIRECTOR                    : Джеймс Ґрей / James Gray
GENRE                       : бойовик, драма, пригодницький, біографічний, історичний
SYNOPSIS                    : Полковник Персі Фоссет – член Королівського Географічного товариства, людина, яка поклала своє життя на вівтар вивчення Південної Америки. У період з 1906 по 1924 роки він сім разів побував у центральних регіонах Бразилії. Його головною метою було знайти загублене місто Z, як Фоссет сам його назвав. Багато хто вважав, що це і є міфічний Ельдорадо. Він вирішив зробити останню експедицію в 1925-му році. Персі Фоссет зник у джунглях Бразилії разом зі своєю групою. Там з ним могло статися все, що завгодно... Чи зможе хтось розгадати таємницю зникнення експедиції?...
Url                         : https://toloka.to/t83569

Video
ID                          : 1
Format                      : AVC
Format/Info                 : Advanced Video Codec
Format profile              : [email protected]
Format settings             : CABAC / 12 Ref Frames
Format settings, CABAC      : Yes
Format settings, Reference  : 12 frames
Codec ID                    : V_MPEG4/ISO/AVC
Duration                    : 2 h 21 min
Bit rate                    : 4 053 kb/s
Width                       : 1 280 pixels
Height                      : 536 pixels
Display aspect ratio        : 2.40:1
Frame rate mode             : Constant
Frame rate                  : 23.976 (24000/1001) FPS
Color space                 : YUV
Chroma subsampling          : 4:2:0
Bit depth                   : 8 bits
Scan type                   : Progressive
Bits/(Pixel*Frame)          : 0.246
Stream size                 : 4.00 GiB (77%)
Title                       : Загублене місто Z / The Lost City of Z (2016) 720p [rutracker-lion1234]
Writing library             : core 152 r2851 ba24899
Encoding settings           : cabac=1 / ref=12 / deblock=1:-3:-3 / analyse=0x3:0x113 / me=umh / subme=10 / psy=1 / psy_rd=0.95:0.00 / mixed_ref=1 / me_range=24 / chroma_me=1 / trellis=2 / 8x8dct=1 / cqm=0 / deadzone=21,11 / fast_pskip=1 / chroma_qp_offset=-2 / threads=6 / lookahead_threads=1 / sliced_threads=0 / nr=0 / decimate=0 / interlaced=0 / bluray_compat=0 / constrained_intra=0 / bframes=16 / b_pyramid=2 / b_adapt=2 / b_bias=0 / direct=1 / weightb=1 / open_gop=0 / weightp=2 / keyint=250 / keyint_min=23 / scenecut=40 / intra_refresh=0 / rc_lookahead=60 / rc=crf / mbtree=0 / crf=15.7 / qcomp=0.62 / qpmin=0 / qpmax=69 / qpstep=4 / vbv_maxrate=62500 / vbv_bufsize=78125 / crf_max=0.0 / nal_hrd=none / filler=0 / ip_ratio=1.40 / pb_ratio=1.30 / aq=2:0.76
Language                    : English
Default                     : Yes
Forced                      : No

Audio #1
ID                          : 2
Format                      : AC-3
Format/Info                 : Audio Coding 3
Commercial name             : Dolby Digital
Codec ID                    : A_AC3
Duration                    : 2 h 21 min
Bit rate mode               : Constant
Bit rate                    : 192 kb/s
Channel(s)                  : 2 channels
Channel layout              : L R
Sampling rate               : 48.0 kHz
Frame rate                  : 31.250 FPS (1536 SPF)
Compression mode            : Lossy
Stream size                 : 194 MiB (4%)
Title                       : MVO [Inter], 2.0 [stereo] 192 Kbps
Language                    : Ukrainian
Service kind                : Complete Main
Default                     : Yes
Forced                      : Yes

Audio #2
ID                          : 3
Format                      : AC-3
Format/Info                 : Audio Coding 3
Commercial name             : Dolby Digital
Codec ID                    : A_AC3
Duration                    : 2 h 21 min
Bit rate mode               : Constant
Bit rate                    : 192 kb/s
Channel(s)                  : 2 channels
Channel layout              : L R
Sampling rate               : 48.0 kHz
Frame rate                  : 31.250 FPS (1536 SPF)
Compression mode            : Lossy
Stream size                 : 194 MiB (4%)
Title                       : MVO [Megogo] 2.0 192 Kbps [Hurtom]
Language                    : Ukrainian
Service kind                : Complete Main
Default                     : No
Forced                      : No

Audio #3
ID                          : 4
Format                      : AC-3
Format/Info                 : Audio Coding 3
Commercial name             : Dolby Digital
Codec ID                    : A_AC3
Duration                    : 2 h 21 min
Bit rate mode               : Constant
Bit rate                    : 192 kb/s
Channel(s)                  : 2 channels
Channel layout              : L R
Sampling rate               : 48.0 kHz
Frame rate                  : 31.250 FPS (1536 SPF)
Compression mode            : Lossy
Stream size                 : 194 MiB (4%)
Title                       : MVO [Cine+], 2.0 [stereo] 192 Kbps
Language                    : Ukrainian
Service kind                : Complete Main
Default                     : No
Forced                      : No

Audio #4
ID                          : 5
Format                      : AC-3
Format/Info                 : Audio Coding 3
Commercial name             : Dolby Digital
Codec ID                    : A_AC3
Duration                    : 2 h 21 min
Bit rate mode               : Constant
Bit rate                    : 640 kb/s
Channel(s)                  : 6 channels
Channel layout              : L R C LFE Ls Rs
Sampling rate               : 48.0 kHz
Frame rate                  : 31.250 FPS (1536 SPF)
Compression mode            : Lossy
Stream size                 : 647 MiB (12%)
Title                       : Original, 5.1 640 Kbps
Language                    : English
Service kind                : Complete Main
Default                     : No
Forced                      : No

Text
ID                          : 6
Format                      : UTF-8
Codec ID                    : S_TEXT/UTF8
Codec ID/Info               : UTF-8 Plain Text
Duration                    : 2 h 8 min
Bit rate                    : 43 b/s
Count of elements           : 1391
Stream size                 : 41.5 KiB (0%)
Title                       : Eng full
Language                    : English
Default                     : No
Forced                      : No

Menu
00:00:00.000                : en:00:00:00.000
00:08:21.750                : en:00:08:21.750
00:15:32.847                : en:00:15:32.847
00:21:29.037                : en:00:21:29.037
00:27:10.045                : en:00:27:10.045
00:34:57.637                : en:00:34:57.637
00:44:59.112                : en:00:44:59.112
00:49:36.431                : en:00:49:36.431
00:58:25.918                : en:00:58:25.918
01:04:43.336                : en:01:04:43.336
01:11:10.599                : en:01:11:10.599
01:21:22.293                : en:01:21:22.293
01:27:42.422                : en:01:27:42.422
01:30:42.854                : en:01:30:42.854
01:39:46.229                : en:01:39:46.229
01:43:59.983                : en:01:43:59.983
01:51:40.193                : en:01:51:40.193
01:56:11.088                : en:01:56:11.088
02:01:43.045                : en:02:01:43.045
02:08:34.372                : en:02:08:34.372

Код:
[info]: frame I:1258 Avg QP:12.55 size:100251
[info]: frame P:33484 Avg QP:14.72 size: 44970
[info]: frame B:168443 Avg QP:16.71 size: 15803
[info]: consecutive B-frames: 0.9% 0.7% 3.5% 9.0% 13.2% 36.0% 8.4% 4.8% 3.4% 2.4% 4.0% 1.9% 3.5% 4.6% 1.4% 0.7% 1.5%
[info]: kb/s:4053.36


Джерело: &
Подяка за українські доріжки: leicheman, kinaxem, xslim.

Історія релізу:
19.08.2017 початковий реліз
03.07.2020 реліз оновлено: додано українські стереодоріжки з та


 Трекер:    Зареєстрований   

Завантажити / скачати фільм українською



відео для новачків



 Зареєстрований:   2020-07-03 22:07
 Розмір:   5.2 GB 
 Оцінка фільму:   7.3/10 (Голосів: 50)
 ЗАЛИШАЙТЕСЬ ЯКОМОГА ДОВШЕ НА РОЗДАЧІ! ЗАВАНТАЖИВ САМ - ДАЙ ЗАВАНТАЖИТИ ІНШИМ!
   
Інші релізи
SaratRich 
VIP


З нами з: 29.05.12
Востаннє: 20.09.20
Повідомлень: 338

2017-08-19 20:10  
Здалось, що Хіт Леджер на постері Rolleyes (1)
0mage0 
VIP


З нами з: 06.10.15
Востаннє: 18.09.20
Повідомлень: 696

2017-08-21 17:01  
Аборигенів називають то індійцями, то індіанцями, то туземцями. В кінці - потерпіли поразку. Але поразки зазнають. Хоча мені здається, експедиція зазнає невдачі.
DuB.Bog 
Свій


З нами з: 14.04.13
Востаннє: 25.08.20
Повідомлень: 88

2018-01-15 11:22  
читаю на постері: "від ОСКАРОНОНИХ продюсерів фільму 12 років..." - це що за продюсери такі, оскарононі?
Anonymous 







2018-01-15 11:44  
DuB.Bog, запитай у прокатника (MMD, Multi Media Distribution), чому заробляючи на кінопрокаті мільйони гривень, вони допускають помилки на офіційних постерах.
demetrius52 
VIP


З нами з: 02.04.17
Востаннє: 03.05.20
Повідомлень: 264

2018-05-12 10:34  
Anonymous
озвучено студією Tretyakoff Production

Anonymous 







2020-07-03 22:09  
Реліз оновлено: додано українські стереодоріжки з та 
saharin88 
Новенький


З нами з: 18.03.18
Востаннє: 20.09.20
Повідомлень: 19

2020-07-04 12:05  
7 з 10.

Декілька експедицій відправляли, щоб їх знайти, і ніби як знайшли кістки, чи не знайшли, не зрозуміло, хто в темі?

Ваш часовий пояс: GMT + 2 Години

Нова тема   Відповісти