Динозаври-залізяки / Dinotrux (Сезон 3) (2016) 720p Ukr/Eng

Нові коментарі

Нова тема   Відповісти
Автор Повідомлення
sergiyko.5 
Забанено
Забанено


З нами з: 25.02.16
Востаннє: 29.10.20
Повідомлень: 3648

2017-08-18 16:16  
Динозаври-залізяки / Dinotrux (Сезон 3) (2016) 720p Ukr/Eng

Динозаври-залізяки / Dinotrux (Сезон 3) (2016) 720p Ukr/Eng

Жанр: дитячий, пригоди
Країна: США
Кінокомпанія: DreamWorks Animation Television

Сюжет:
Тварини, як Кронозавр, Гарбагемон і Тиранозавр (на половину динозаври на половину
вантажівки) живуть у вигадану доісторичну епоху.




Тривалість: 00:23:07 серія, загалом 16 серій
Якість:

Відео: кодек: розмір кадру: 1276 х 720 бітрейт: 1000 кб/с
Аудіо #1: мова: українська переклад: багатоголосий закадровий кодек: 2.0 бітрейт: 192 кб/с
Аудіо #2: мова: англійська переклад: оригінал кодек: 2.0 бітрейт: 120 кб/с
Джерело озвучення:
Перелік серій
01 Slide
02 Drillasaurs
03 Volcano
04 Sawmetradon
05 Speed
06 Flynt
07 Wings
08 Slamtools
09 Blayde
10 Battle
11 Cementasaurs
12 Eggs
13 Pounder
14 Shockarachnids
15 Scaretrux
16 Magnet Mountain
Інформація про файл:
General
Unique ID : 182005402019354089081630896589550754180 (0x88ECF72312D96023A790F945BC719984)
Complete name : E:\MULTFILMS\DinoTrux S03 720p\Dinotrux.S03E01.Slide.
Format :
Format version : Version 4 / Version 2
File size : 229 MiB
Duration : 23 min 6 s
Overall bit rate : 1 386 kb/s
Movie name : DinoTrux S03 720p by sergiyko
Encoded date : UTC 2017-08-18 13:09:33
Writing application : v14.0.0 ('Flow') 64bit
Writing library : libebml v1.3.4 + v1.4.5
Cover : Yes
Attachments : cover.jpeg

Video
ID : 1
Format : AVC
Format/Info : Advanced Video Codec
Format profile : [email protected]
Format settings, CABAC : Yes
Format settings, RefFrames : 4 frames
Codec ID : V_MPEG4/ISO/AVC
Duration : 23 min 6 s
Bit rate : 1 059 kb/s
Width : 1 280 pixels
Height : 720 pixels
Display aspect ratio : 16:9
Frame rate mode : Constant
Frame rate : 23.976 (24000/1001) FPS
Color space : YUV
Chroma subsampling : 4:2:0
Bit depth : 8 bits
Scan type : Progressive
Bits/(Pixel*Frame) : 0.048
Stream size : 175 MiB (76%)
Title : S03E01 Slide
Language : English
Default : Yes
Forced : No

Audio #1
ID : 2
Format : AC-3
Format/Info : Audio Coding 3
Format settings, Endianness : Big
Codec ID : A_AC3
Duration : 23 min 6 s
Bit rate mode : Constant
Bit rate : 192 kb/s
Channel(s) : 2 channels
Channel positions : Front: L R
Sampling rate : 48.0 kHz
Frame rate : 31.250 FPS (1536 SPF)
Bit depth : 16 bits
Compression mode : Lossy
Stream size : 31.7 MiB (14%)
Title : MOV 2ch | QTV
Language : Ukrainian
Service kind : Complete Main
Default : Yes
Forced : Yes

Audio #2
ID : 3
Format :
Format/Info : Advanced Audio Codec
Format profile : LC
Codec ID : A_AAC
Duration : 23 min 6 s
Bit rate : 132 kb/s
Channel(s) : 2 channels
Channel positions : Front: L R
Sampling rate : 48.0 kHz
Frame rate : 46.875 FPS (1024 SPF)
Compression mode : Lossy
Stream size : 21.6 MiB (9%)
Title : Original
Language : English
Default : No
Forced : No
Скріншоти:


Автор записів та ріпів: sergiyko



Бронзовий реліз (на рейтинг впливає 75% завантаженого)
 Трекер:    Зареєстрований   

Завантажити / скачати мультфільм українською



відео для новачків



 Зареєстрований:   2017-08-22 17:26
 Розмір:   3.61 GB 
 Оцінка мультсеріалу:   9.9/10 (Голосів: 10)
   
shutbanderas 
VIP


З нами з: 09.04.09
Востаннє: 04.04.21
Повідомлень: 290

2017-08-19 00:06  
А тих серій що не вистачає по списку - буде доповнено?
P.S.Дякую за серіал - дітки дивляться з захопленням...

sergiyko.5 
Забанено
Забанено


З нами з: 25.02.16
Востаннє: 29.10.20
Повідомлень: 3648

2017-08-22 17:26  
Додав нові серії. Сезон повний. Приємного перегляду!
Ваш часовий пояс: GMT + 2 Години

Нова тема   Відповісти