Тачки / Cars [Open Matte] (2006) 1080p Ukr/Eng | Sub Ukr/Eng

Нові коментарі

Нова тема   Відповісти
Автор Повідомлення
sergiyko.5 
VIP


З нами з: 25.02.16
Востаннє: 20.05.19
Повідомлень: 2286

2017-08-16 15:40  
Тачки / Cars [Open Matte] (2006) 1080p Ukr/Eng | Sub Ukr/Eng

Тачки / Cars [Open Matte] (2006) 1080p Ukr/Eng | Sub Ukr/Eng

Жанр: анімація, пригодницький, комедія, сімейний, спорт
Країна: США
Кінокомпанія: Walt Disney Pictures, Pixar Animation Studios
Режисер: Джон Лессетер, Джо Ренфт
Актори: Овен Bілсон, Пол Ньюмен, Боні Гант, Ларрі Кабельник, Чіч Марін, Тоні Шелгуб, Ґвідо Квароні, Дженіфер Льюїс, Пол Дулі, Майкл Bоліс, Джордж Карлін, Кетрін Гелмонд, Джон Ратценберґер, Джо Ренфт, Майкл Кітон та інші

Фільм перекладено і дубльовано на студії Невафільм Україна

Перекладач і автор синхронного тексту: Олекса Негребецький
Режисер дубляжу: Костянтин Лінартович
Звукорежисер: Олег Кульчицький
Творчий консультант: Маріуш Яворовський
Ролі дублювали: Овен Вілсон/Блискавка МакКвін — Остап Ступка, Бонні Гант/Саллі — Ольга Сумська, Пол Ньюмен/Док Гадсон — Олександр Ігнатуша; Ларрі Кабельник/Сирник, а також Тоні Шелгуб/Луїджі — Юрій Коваленко, Кусок — Костянтин Лінартович, Ґвідо — Данило Де Гироламо, Фло — Наталія Надірадзе, Шериф — Володимир Нечепоренко, Доливай — Володимир Терещук, Ліззі — Валентина Зимня, Рамон — Максим Кондратюк, Шланг — Луїс Даніель Рамірез, Шик Грін — Андрій Середа, Мак — Володимир Жогло, Король — Євген Малуха, Пані Король — Валентина Гришокіна, Тех — Володимир Задніпровський, Гарв — Євген Шах, Боб — Анатолій Зіновенко, Даррел — Роман Семисал, Корі Турбович — Лариса Руснак, Брень, а також Механік — Володимир Мельник, Дзень — Володимир Голосняк, Фред і Бусик — Юрій Ребрик; Буся — Ірина Дорошенко; Ліно, а також Курлун — Роман Чорний; Міа і Тіа — Ольга Гузь, Шмаркач — Олександр Форманчук, Джуніор і Форсаж — Дмитро Лінартович, Ді-джей — Дмитро Сова, М. Шумахер — Володимир Голосняк, М. Андретті — Роман Семисал

Сюжет:
Гоночний автомобіль Блискавка МакКвін по дорозі на повторні перегони на кубок "Великого поршня", які він не зміг виграти з першого разу через свою зарозумілість, випадково залишається без свого трейлера і опиняється посеред голого степу вночі. Незабаром він натрапляє на забуте місто, де доживають в забутті автомобілі шістдесятих років - буксир Сирник, старий великий седан Гадсон "Док" Горнет, полісмен Шериф, ремонтники-італійці Ґвідо та Луїджі (як кожен нормальний італієць - затяті фанати Фeррaрi), подружжя фарбувальників Фло та Рамон та інші. Шериф покарав міського нахабу, який зіпсував міську дорогу і Блискавка залишається на тиждень її ремонтувати. І перевиховуватись...




Тривалість: 01:57:05
Якість:

Відео: кодек: розмір кадру: 1920 х 1080 бітрейт: 5120 кб/с
Аудіо # 1: мова: українська переклад: професійний дубльований кодек: 5.1 бітрейт: 640 кб/с
Аудіо # 2: мова: англійська переклад: оригінал кодек: 5.1 бітрейт: 1509 кб/с
Джерело озвучення:
Субтитри #1: Forced мова: українська тип: програмні (м'які) формат: *.srt
Субтитри #2: Full мова: українська тип: програмні (м'які) формат: *.srt
Субтитри #3: мова: англійська тип: програмні (м'які) формат: *.srt
Про файл:
General
Unique ID : 234378946601705427830645478092909425043 (0xB053BE3FB20C0F5690A0CCD46A41B193)
Complete name : D:\Torrents\MULT\Cars.2006.Open Matte.1080p..Ukr.Eng.
Format :
Format version : Version 4 / Version 2
File size : 5.76 GiB
Duration : 1 h 57 min
Overall bit rate : 7 041 kb/s
Movie name : Cars.2006.Open Matte.1080p.
Encoded date : UTC 2017-08-16 12:28:11
Writing application : v14.0.0 ('Flow') 64bit
Writing library : libebml v1.3.4 + v1.4.5
Cover : Yes
Attachments : cover.jpeg

Video
ID : 1
Format : AVC
Format/Info : Advanced Video Codec
Format profile : [email protected]
Format settings, CABAC : Yes
Format settings, RefFrames : 4 frames
Codec ID : V_MPEG4/ISO/AVC
Duration : 1 h 57 min
Bit rate : 5 120 kb/s
Width : 1 920 pixels
Height : 1 080 pixels
Display aspect ratio : 16:9
Frame rate mode : Constant
Frame rate : 23.976 (24000/1001) FPS
Color space : YUV
Chroma subsampling : 4:2:0
Bit depth : 8 bits
Scan type : Progressive
Bits/(Pixel*Frame) : 0.103
Stream size : 4.01 GiB (70%)
Title : Cars 2006 Open Matte 1080p
Writing library : core 142
Encoding settings : cabac=1 / ref=3 / deblock=1:0:0 / analyse=0x3:0x113 / me=hex / subme=7 / psy=1 / psy_rd=1.00:0.00 / mixed_ref=1 / me_range=16 / chroma_me=1 / trellis=1 / 8x8dct=1 / cqm=0 / deadzone=21,11 / fast_pskip=1 / chroma_qp_offset=-2 / threads=4 / lookahead_threads=1 / sliced_threads=0 / nr=0 / decimate=1 / interlaced=0 / bluray_compat=0 / constrained_intra=0 / bframes=6 / b_pyramid=2 / b_adapt=1 / b_bias=0 / direct=1 / weightb=1 / open_gop=0 / weightp=2 / keyint=200 / keyint_min=20 / scenecut=0 / intra_refresh=0 / rc_lookahead=40 / rc=2pass / mbtree=1 / bitrate=5120 / ratetol=1.0 / qcomp=0.60 / qpmin=0 / qpmax=69 / qpstep=4 / cplxblur=20.0 / qblur=0.5 / vbv_maxrate=7680 / vbv_bufsize=20480 / nal_hrd=none / filler=0 / ip_ratio=1.40 / aq=1:1.00
Language : English
Default : Yes
Forced : No

Audio #1
ID : 2
Format : AC-3
Format/Info : Audio Coding 3
Format settings, Endianness : Big
Codec ID : A_AC3
Duration : 1 h 56 min
Bit rate mode : Constant
Bit rate : 640 kb/s
Channel(s) : 6 channels
Channel positions : Front: L C R, Side: L R, LFE
Sampling rate : 48.0 kHz
Frame rate : 31.250 FPS (1536 SPF)
Bit depth : 16 bits
Compression mode : Lossy
Stream size : 534 MiB (9%)
Title : DUB 5.1ch
Language : Ukrainian
Service kind : Complete Main
Default : Yes
Forced : Yes

Audio #2
ID : 3
Format :
Format/Info : Digital Theater Systems
Mode : 16
Format settings, Endianness : Big
Codec ID : A_DTS
Duration : 1 h 56 min
Bit rate mode : Constant
Bit rate : 1 510 kb/s
Channel(s) : 6 channels
Channel positions : Front: L C R, Side: L R, LFE
Sampling rate : 48.0 kHz
Frame rate : 93.750 FPS (512 SPF)
Bit depth : 24 bits
Compression mode : Lossy
Stream size : 1.23 GiB (21%)
Title : Original
Language : English
Default : No
Forced : No

Text #1
ID : 4
Format : UTF-8
Codec ID : S_TEXT/UTF8
Codec ID/Info : UTF-8 Plain Text
Duration : 1 h 51 min
Bit rate : 5 b/s
Count of elements : 148
Stream size : 4.64 KiB (0%)
Language : Ukrainian
Default : Yes
Forced : No

Text #2
ID : 5
Format : UTF-8
Codec ID : S_TEXT/UTF8
Codec ID/Info : UTF-8 Plain Text
Duration : 1 h 55 min
Bit rate : 103 b/s
Count of elements : 1588
Stream size : 87.1 KiB (0%)
Language : Ukrainian
Default : No
Forced : No

Text #3
ID : 6
Format : UTF-8
Codec ID : S_TEXT/UTF8
Codec ID/Info : UTF-8 Plain Text
Duration : 1 h 55 min
Bit rate : 65 b/s
Count of elements : 1440
Stream size : 55.2 KiB (0%)
Language : English
Default : No
Forced : No
Скріншоти:


 Трекер:    Зареєстрований   

Завантажити / скачати мультфільм українською



відео для новачків



 Зареєстрований:   2017-08-16 15:40
 Розмір:   5.76 GB 
 Оцінка мультфільму:   9.9/10 (Голосів: 28)
   
Інші релізи
   Тачки / Cars (2006) Remux 1080p Ukr/Eng | Sub Ukr/Eng Argentum  6 / 0   20.03 GB   2017-11-10 17:04 
   Тачки [повноекранна версія] / Cars [Open Matte] (2006) Ukr/Eng | Sub Ukr/Eng omm  9 / 2   2.55 GB   2017-06-19 10:08 
   Тачки / Cars (2006) arabon3  41 / 0   1.44 GB   2011-11-09 23:17 
   Тачки / Cars (2006) 1080p-mini Zeus62  11 / 0   4.24 GB   2011-04-05 13:28 
   Тачки / Cars (2006) 1080p Ukr/Eng | Sub Ukr/Eng SainTManiac  20 / 1   7.42 GB   2010-01-13 10:39 
sergiyko.5 
VIP


З нами з: 25.02.16
Востаннє: 20.05.19
Повідомлень: 2286

2017-08-16 15:42  
На численні прохання зробив реліз повноекранної версії легендарного мультфільма "Тачки".

Порівняння звичайної версії і повноекранної:


vlad5229 
Новенький


З нами з: 17.10.11
Востаннє: 08.05.19
Повідомлень: 3

2017-08-18 12:23  
А можна ще зробити реліз в трохи меншому розширенні 1366x768 і без англійської мови щоби менший розмір був?
sergiyko.5 
VIP


З нами з: 25.02.16
Востаннє: 20.05.19
Повідомлень: 2286

2017-08-18 12:34  
vlad5229 написано:
без англійської мови

заборонено правилами цього ресурсу у якості 720p і вище. Дозволено зробити ріп 1024х576 без оригінальної доріжки.

Drool 
VIP


З нами з: 17.04.10
Востаннє: 20.05.19
Повідомлень: 1515

2017-08-20 02:43  
sergiyko.5 написано:
заборонено правилами цього ресурсу у якості 720p і вище
Можна зробити 720p-mini без зайвих доріжок.
FN-2187 
Новенький


З нами з: 07.01.16
Востаннє: 10.05.19
Повідомлень: 9

2017-09-14 17:22  
Не планується такий реліз в 720p-mini або AVC?
4stazy 
Новенький


З нами з: 29.10.17
Востаннє: 17.12.18
Повідомлень: 1

2017-10-29 10:50  
Супер! якість класс. дякую за реліз
Andrey-2005 
Частий відвідувач


З нами з: 13.05.16
Востаннє: 19.05.19
Повідомлень: 36

2017-12-03 19:57  
Несподівано, навіть не знав що існує нормальна повноекранна версія, дякую!
А інші частини будуть 16:9?

vovang6 
Поважний учасник


З нами з: 27.08.12
Востаннє: 20.05.19
Повідомлень: 195

2017-12-05 21:20  
Дякую, не очікував, було б круто всі частини загнати в такий розмір.
Gripson 
Новенький


З нами з: 07.04.12
Востаннє: 20.05.19
Повідомлень: 3

2018-01-19 02:33  
Англійська доріжка не відтворюється.
vkravchenko 
Новенький


З нами з: 12.08.14
Востаннє: 11.04.19
Повідомлень: 1

2018-02-24 19:46  
Дякую!!!
Ваш часовий пояс: GMT + 2 Години

Нова тема   Відповісти