Вартові Галактики 2 / Guardians of the Galaxy Vol. 2 (2017) 1080p [IMAX Edition] Ukr/Eng | Sub Ukr/Eng

Нові коментарі

Нова тема   Відповісти
Автор Повідомлення
yuretsua 
Частий відвідувач


З нами з: 05.09.11
Востаннє: 19.10.17
Повідомлень: 43

2017-08-16 02:27  
Вартові Галактики 2 / Guardians of the Galaxy Vol. 2 (2017) 1080p [IMAX Edition] Ukr/Eng | Sub Ukr/Eng

Вартові Галактики 2 / Guardians of the Galaxy Vol. 2 (2017) 1080p [IMAX Edition] Ukr/Eng | Sub Ukr/Eng


Жанр: фантастика, екшн, пригодницький, комедія
Країна: США



Кінокомпанія: Marvel Studios, Walt Disney Pictures
Режисер: Джеймс Ганн
Актори: Кріс Пратт, Зої Салдана, Дейв Батіста, Бредлі Купер, Він Дізель, Карен Ґіллан, Майкл Рукер, Пом Клементьєфф, Курт Рассел, Елізабет Дебік

Сюжет:
Продовження пригод антигероїв кінематографічного всесвіту Marvel – Вартових Галактики. Тут і дочка Таноса Ґамора, і громила Дракс, і геній-єнот Ракета, і новонароджений малюк Ґрут, і Зоряний Лорд Пітер Квілл. Останній зобов'язаний нарешті дізнатися, хто його батько, та знайти його серед неосяжних просторів космосу. Також до команди приєднаються Мантіс і Йонду. Героям належить потрапити в нестандартні ситуації і знову рятувати всю Галактику від страшних загроз.


Тривалість: 02:15:46
Якість: [IMAX Edition]
Відео:
кодек:
розмір кадру: 1920 x 1080
бітрейт: 15,0 Мб/с

Аудіо # 1:
мова: українська
переклад: професійний дубльований
кодек: 5.1
бітрейт: 1536 кб/с

Аудіо # 2:
мова: українська
переклад: професійний дубльований
кодек: 5.1
бітрейт: 448 кб/с

Аудіо # 3:
мова: англійська
переклад: оригінал
кодек: 5.1
бітрейт: 1509 кб/с

Аудіо # 4:
мова: англійська
переклад: коментарі режисера Джеймса Ганна
кодек: 2.0
бітрейт: 192 кб/с

Субтитри # 1-2:
мова: українська (форсовані і повні)
тип: програмні (м'які)
формат: *.srt

Субтитри # 3-4:
мова: англійська (повні)
тип: пререндерні
формат: *.pgs
Info
General
Unique ID : 171187064237910724329551260300975671845 (0x80C96DE74F3D7D9B9EF0207184720A25)
Complete name : D:\torrents\Films\Guardians of the Galaxy Vol. 2 (2017) 1080p [UKR_ENG] [Hurtom] (1).
Format :
Format version : Version 4 / Version 2
File size : 17.7 GiB
Duration : 2 h 15 min
Overall bit rate : 18.7 Mb/s
Movie name : Guardians of the Galaxy Vol. 2 (2017) 1080p [UKR_ENG] [Hurtom]
Encoded date : UTC 2017-08-26 21:52:49
Writing application : mkvmerge v15.0.0 ('Duel with the Devil') 64-bit
Writing library : libebml v1.3.5 + libmatroska v1.4.5
Cover : Yes
Attachments : cover

Video
ID : 1
Format : AVC
Format/Info : Advanced Video Codec
Format profile : High@L4.1
Format settings, CABAC : Yes
Format settings, RefFrames : 4 frames
Format settings, GOP : M=1, N=3
Codec ID : V_MPEG4/ISO/AVC
Duration : 2 h 15 min
Bit rate : 15.0 Mb/s
Width : 1 920 pixels
Height : 1 080 pixels
Display aspect ratio : 16:9
Frame rate mode : Constant
Frame rate : 23.976 (24000/1001) FPS
Color space : YUV
Chroma subsampling : 4:2:0
Bit depth : 8 bits
Scan type : Progressive
Bits/(Pixel*Frame) : 0.301
Stream size : 14.2 GiB (80%)
Writing library : core 152 r2851 ba24899
Encoding settings : cabac=1 / ref=4 / deblock=1:-3:-3 / analyse=0x3:0x113 / me=umh / subme=11 / psy=1 / psy_rd=1.00:0.15 / mixed_ref=1 / me_range=32 / chroma_me=1 / trellis=2 / 8x8dct=1 / cqm=0 / deadzone=21,11 / fast_pskip=1 / chroma_qp_offset=-2 / threads=4 / lookahead_threads=1 / sliced_threads=0 / nr=0 / decimate=1 / interlaced=0 / bluray_compat=0 / constrained_intra=0 / bframes=12 / b_pyramid=2 / b_adapt=1 / b_bias=0 / direct=1 / weightb=1 / open_gop=0 / weightp=2 / keyint=240 / keyint_min=23 / scenecut=50 / intra_refresh=0 / rc_lookahead=60 / rc=crf / mbtree=0 / crf=15.8 / qcomp=0.60 / qpmin=0 / qpmax=69 / qpstep=4 / vbv_maxrate=42500 / vbv_bufsize=58000 / crf_max=0.0 / nal_hrd=none / filler=0 / ip_ratio=1.40 / pb_ratio=1.30 / aq=1:0.80
Language : English
Default : Yes
Forced : No
Color range : Limited
Color primaries : BT.709
Transfer characteristics : BT.709
Matrix coefficients : BT.709

Audio #1
ID : 2
Format :
Format/Info : Digital Theater Systems
Mode : 16
Format settings, Endianness : Big
Codec ID : A_DTS
Duration : 2 h 15 min
Bit rate mode : Constant
Bit rate : 1 509 kb/s
Channel(s) : 6 channels
Channel positions : Front: L C R, Side: L R, LFE
Sampling rate : 48.0 kHz
Frame rate : 93.750 FPS (512 SPF)
Bit depth : 24 bits
Compression mode : Lossy
Stream size : 1.43 GiB (8%)
Title : Ukrainian 5.1 @ 1536 kbps
Language : Ukrainian
Default : Yes
Forced : Yes

Audio #2
ID : 3
Format : AC-3
Format/Info : Audio Coding 3
Format settings, Endianness : Big
Codec ID : A_AC3
Duration : 2 h 15 min
Bit rate mode : Constant
Bit rate : 448 kb/s
Channel(s) : 6 channels
Channel positions : Front: L C R, Side: L R, LFE
Sampling rate : 48.0 kHz
Frame rate : 31.250 FPS (1536 SPF)
Bit depth : 16 bits
Compression mode : Lossy
Stream size : 435 MiB (2%)
Title : Ukrainian 5.1 @ 448 kbps
Language : Ukrainian
Service kind : Complete Main
Default : No
Forced : No

Audio #3
ID : 4
Format :
Format/Info : Digital Theater Systems
Mode : 16
Format settings, Endianness : Big
Codec ID : A_DTS
Duration : 2 h 15 min
Bit rate mode : Constant
Bit rate : 1 509 kb/s
Channel(s) : 6 channels
Channel positions : Front: L C R, Side: L R, LFE
Sampling rate : 48.0 kHz
Frame rate : 93.750 FPS (512 SPF)
Bit depth : 24 bits
Compression mode : Lossy
Stream size : 1.43 GiB (8%)
Title : Original 5.1 @ 1509 kbps
Language : English
Default : No
Forced : No

Audio #4
ID : 5
Format : AC-3
Format/Info : Audio Coding 3
Format settings, Endianness : Big
Codec ID : A_AC3
Duration : 2 h 15 min
Bit rate mode : Constant
Bit rate : 192 kb/s
Channel(s) : 2 channels
Channel positions : Front: L R
Sampling rate : 48.0 kHz
Frame rate : 31.250 FPS (1536 SPF)
Bit depth : 16 bits
Compression mode : Lossy
Stream size : 186 MiB (1%)
Title : Commentary Director James Gunn 2.0 @ 192 kbps
Language : English
Service kind : Complete Main
Default : No
Forced : No

Text #1
ID : 6
Format : UTF-8
Codec ID : S_TEXT/UTF8
Codec ID/Info : UTF-8 Plain Text
Duration : 2 h 6 min
Bit rate : 0 b/s
Count of elements : 12
Stream size : 440 Bytes (0%)
Title : Forced Ukr
Language : Ukrainian
Default : Yes
Forced : Yes

Text #2
ID : 7
Format : UTF-8
Codec ID : S_TEXT/UTF8
Codec ID/Info : UTF-8 Plain Text
Duration : 2 h 14 min
Bit rate : 77 b/s
Count of elements : 1578
Stream size : 76.1 KiB (0%)
Title : Full Ukr
Language : Ukrainian
Default : No
Forced : No

Text #3
ID : 8
Format : PGS
Muxing mode : zlib
Codec ID : S_HDMV/PGS
Codec ID/Info : Picture based subtitle format used on BDs/HD-DVDs
Duration : 2 h 14 min
Bit rate : 36.4 kb/s
Count of elements : 3946
Stream size : 35.1 MiB (0%)
Title : Full Eng-PGS
Language : English
Default : No
Forced : No

Text #4
ID : 9
Format : PGS
Muxing mode : zlib
Codec ID : S_HDMV/PGS
Codec ID/Info : Picture based subtitle format used on BDs/HD-DVDs
Duration : 2 h 15 min
Bit rate : 77.6 kb/s
Count of elements : 5160
Stream size : 75.2 MiB (0%)
Title : Full Commentary Eng-PGS
Language : English
Default : No
Forced : No

Menu
00:00:00.000 : en:00:00:00.000
00:09:56.178 : en:00:09:56.178
00:15:10.117 : en:00:15:10.117
00:22:14.082 : en:00:22:14.082
00:32:33.701 : en:00:32:33.701
00:36:52.126 : en:00:36:52.126
00:42:29.171 : en:00:42:29.171
00:48:03.463 : en:00:48:03.463
00:53:18.904 : en:00:53:18.904
00:58:45.939 : en:00:58:45.939
01:05:52.239 : en:01:05:52.239
01:11:12.434 : en:01:11:12.434
01:18:43.593 : en:01:18:43.593
01:23:55.321 : en:01:23:55.321
01:30:24.752 : en:01:30:24.752
01:39:36.178 : en:01:39:36.178
01:47:06.211 : en:01:47:06.211
01:54:21.604 : en:01:54:21.604
01:58:53.709 : en:01:58:53.709
02:07:13.459 : en:02:07:13.459
02:15:45.929 : en:02:15:45.929
Скріншоти
Подяка пану madagaskar1 та vovikmar за субтитри і пану 11FrYkT за українську доріжку 5.1
Джерело:
Особиста оцінка: 9


 Трекер:    Зареєстрований   

Завантажити / скачати фільм українською



відео для новачків



 Зареєстрований:   2017-08-27 01:36
 Розмір:   17.71 GB 
 Оцінка фільму:   8.2/10 (Голосів: 73)
   
Інші релізи
   Вартові Галактики 2 / Guardians of the Galaxy Vol. 2 (2017) 720p-mini (60 fps) Drool  24 / 1   4.28 GB   2017-10-03 17:27 
   Вартові Галактики 2 / Guardians of the Galaxy Vol. 2 (2017) 1080p 3D [Half OverUnder] [IMAX Edition] Ukr/Eng | Sub Ukr/Eng GEORGKys  16 / 0   10.24 GB   2017-09-10 10:52 
   Вартові Галактики 2 / Guardians of the Galaxy Vol. 2 (2017) 1080p 3D [Half OverUnder] Ukr/Eng | Sub Ukr/Eng GEORGKys  16 / 0   12.25 GB   2017-09-03 23:40 
   Вартові Галактики 2 / Guardians of the Galaxy Vol. 2 (2017) Covenant  128 / 5   1.45 GB   2017-08-26 11:20 
   Вартові Галактики 2 / Guardians of the Galaxy Vol. 2 (2017) 720p [IMAX Edition] Ukr/Eng | Sub Ukr/Eng 11FrYkT  99 / 0   6.19 GB   2017-08-24 21:20 
   Вартові Галактики 2 / Guardians of the Galaxy Vol. 2 (2017) Remux 1080p [IMAX Edition] Ukr/Eng 1080p Ukr/Eng | Sub Ukr/Eng 11FrYkT  38 / 1   30.68 GB   2017-08-24 09:57 
   Вартові галактики 2 / Guardians of the Galaxy Vol. 2 (2017) 1080p Ukr/Eng | Sub Ukr/Eng vovikmar  47 / 2   13.24 GB   2017-08-23 22:25 
   Вартові Галактики 2 / Guardians of the Galaxy Vol. 2 (2017) AVC [IMAX Edition] Ukr/Eng | Sub Ukr/Eng 11FrYkT  189 / 1   2.91 GB   2017-08-23 21:19 
   Вартові галактики 2 / Guardians of the Galaxy Vol. 2 (2017) AVC Eng | sub Ukr/Eng vovikmar  27 / 0   2.51 GB   2017-08-10 21:34 
piznajko 
Відео Гуртом - субтитрування
Відео Гуртом - субтитрування


З нами з: 24.02.09
Востаннє: 20.10.17
Повідомлень: 1413

2017-08-16 05:45  
Різниця з цим релізом? https://toloka.to/t83404
EvGaS 
Відео Гуртом - субтитрування
Відео Гуртом - субтитрування


З нами з: 27.02.12
Востаннє: 20.10.17
Повідомлень: 4095

2017-08-16 05:59  
piznajko написано:
Різниця з цим релізом? https://toloka.to/t83404

Розмір?

maleficmax 
Свій


З нами з: 18.04.12
Востаннє: 19.10.17
Повідомлень: 55

2017-08-16 10:49  
Люди, коли вже ви почнете писати звідки доріжка? Що за кіт у мішку?
VaSIGARAn 
Новенький


З нами з: 09.09.13
Востаннє: 20.10.17
Повідомлень: 3

2017-08-16 12:36  
дадуть золото чи ні? а то 15 гб - це 15 гб ))))
igor911 
Відео Гуртом
Відео Гуртом


З нами з: 18.01.08
Востаннє: 20.10.17
Повідомлень: 7936

2017-08-16 12:41  
VaSIGARAn, ні золота не буде. До того ж у реліза є один недолік - ориг. доріжка -HD MA 7.1 4,6 Гб в ріпі не доцільна, хто має на чому програвати такий звук зазвичай дивляться ремукси, а не ріпи.
CRazyDWarf 
Новенький


З нами з: 26.05.11
Востаннє: 13.10.17
Повідомлень: 13

2017-08-16 12:46  
І знов як завжди. Російський дубляж є звук 5.1 - українського немає. Добре що я в кіно сходив Happy Тому що всього лише ім'я одного й того ж самого персонажу українською (Рилошквар) і російською (Шокерфейс) в повний зріст показує убогість узького язика Happy)))) P.S. Дивився вчора з жіною вдома російською - український дубляж на 2 (ні - на 10) голови вищий від запорєбрікового. Happy Молодці перекладачі і актори дубляжу. Так тримати.
yuretsua 
Частий відвідувач


З нами з: 05.09.11
Востаннє: 19.10.17
Повідомлень: 43

2017-08-16 16:57  
Цитата:
До того ж у реліза є один недолік - ориг. доріжка -HD MA 7.1 4,6 Гб в ріпі не доцільна,

igor911, я можу виправити, якщо це бажано зробити
Чи потім, коли з'явиться кращий звук

igor911 
Відео Гуртом
Відео Гуртом


З нами з: 18.01.08
Востаннє: 20.10.17
Повідомлень: 7936

2017-08-16 17:02  
yuretsua, виправ, як будеш оновлювати реліз ліцензійним звуком.

Додано через 44 секунди:

на простий 5.1 1509 кб/с

yuretsua 
Частий відвідувач


З нами з: 05.09.11
Востаннє: 19.10.17
Повідомлень: 43

2017-08-16 17:09  
igor911, гаразд
yuretsua 
Частий відвідувач


З нами з: 05.09.11
Востаннє: 19.10.17
Повідомлень: 43

2017-08-23 23:40  
Реліз невдовзі буде оновлено

Додано через 22 хвилини 15 секунд:

Замінено відеоряд, оновлено українську доріжку до 5.1, оновлено англійську доріжку до Core, додано коментарі режисера та субтитри до них

rhorosh 
Частий відвідувач


З нами з: 23.03.09
Востаннє: 17.10.17
Повідомлень: 45

2017-08-24 23:15  
Перепрошую, чи це IMAX Edition?
yuretsua 
Частий відвідувач


З нами з: 05.09.11
Востаннє: 19.10.17
Повідомлень: 43

2017-08-24 23:52  
rhorosh
ні

Додано через 5 хвилин 55 секунд:

але буде оновлено, коли з'явиться ріп

igor911 
Відео Гуртом
Відео Гуртом


З нами з: 18.01.08
Востаннє: 20.10.17
Повідомлень: 7936

2017-08-26 21:45  
yuretsua написано:
але буде оновлено, коли з'явиться ріп

також додайте укр.звук в

megaars25 
Новенький


З нами з: 10.04.15
Востаннє: 20.10.17
Повідомлень: 4

2017-08-27 00:03  
а буде реліз в 4К?
yuretsua 
Частий відвідувач


З нами з: 05.09.11
Востаннє: 19.10.17
Повідомлень: 43

2017-08-27 01:39  
Оновлено відеоряд на IMAX, додано українську доріжку

Додано через 31 секунду:

megaars25
від мене ні

Spaceberry 
Новенький


З нами з: 16.11.16
Востаннє: 19.10.17
Повідомлень: 4

2017-08-31 19:15  
Українська озвучка просто вогонь! Все зроблено з душою i з максимальною якiстю. Я просто пiд кайфом! Росiйське озвучення втратило весь шарм оригiналу, а в нашому все це з обережнiстю перенесено в найменших дрiбницях. Вуууух! Наче наркоти бахнув!
Ваш часовий пояс: GMT + 2 Години

Нова тема   Відповісти