Лашкаво прошимо / Bienvenue chez les Ch'tis (2008) Remux 1080p Ukr/Fra | Sub Fra/Eng

Нові коментарі

Нова тема   Відповісти
Автор Повідомлення
Argentum 
Поважний учасник


З нами з: 25.09.11
Востаннє: 21.05.19
Повідомлень: 200

2017-08-14 20:02  
Лашкаво прошимо / Bienvenue chez les Ch'tis (2008) Remux 1080p Ukr/Fra | Sub Fra/Eng

Лашкаво прошимо / Bienvenue chez les Ch'tis (2008) Remux 1080p Ukr/Fra | Sub Fra/Eng


Жанр: комедія
Країна: Франція



Кінокомпанія: Pathé Distribution
Режисер: Дені Бун
Актори: Кад Мерад, Дені Бун, Зое Фелікс, Енн Марівін, Філіп Дюкен, Гай Леклюіз, Лайн Рено, Мішель Галабрю, Стефан Фрейсс, Патрік Бос, Жером Коммандер

Сюжет:
Філіп Абрамс, начальник поштового відділення на півдні Франції в Салон-де-Прованс робить все для того, щоб бути переведеним по службі в Кассис, райський куточок поблизу Марселя. Проте всі його старання і мрії руйнуються, коли за незначне службове порушення його на два роки переводять на північ до Берга, неподалік Дюнкерка. Для людей з півдня Франції, переповнених стереотипами, північ - це жах, полярний регіон, населений грубими істотами, що розмовляють незрозумілою мовою. На свій великий подив, Філіп Абрамс знаходить там чарівне місце, теплу команду, гостинних людей і нових друзів.


Тривалість: 01:46:00
Якість: Remux 1080p
Відео:
кодек: VC-1
розмір кадру: 1920 х 1080
бітрейт: 14000 кб/с

Аудіо # 1:
мова: українська
переклад: багатоголосий закадровий
кодек: 2.0
бітрейт: 192 кб/с

Аудіо # 2:
мова: французька
переклад: оригінал
кодек: 5.1
бітрейт: 1509 кб/с

Субтитри:
мова: французька
тип: пререндерні
формат: *.pgs

Субтитри:
мова: англійська
тип: пререндерні
формат: *.pgs
Info
General
Unique ID : 328149270355751298472276305992862173885 (0xF6DF40275E0371DD79787E5A777C8ABD)
Complete name : /home/jacks/Videos/My/Lashkavo proshimo/Bienvenue chez les Chtis (2008) [Ukr,Fra] Remux 1080p [Hurtom].
Format :
Format version : Version 4 / Version 2
File size : 11.7 GiB
Duration : 1h 46mn
Overall bit rate : 15.8 Mbps
Movie name : Release for HURTOM.COM
Encoded date : UTC 2017-08-13 11:06:49
Writing application : v14.0.0 ('Flow') 64bit
Writing library : libebml v1.3.4 + v1.4.5
Attachments : lashkavo-proshimo_550.jpg

Video
ID : 1
Format : VC-1
Format profile : [email protected]
Codec ID : V_MS/VFW/FOURCC / WVC1
Codec ID/Hint : Microsoft
Duration : 1h 46mn
Bit rate : 14.0 Mbps
Width : 1 920 pixels
Height : 1 080 pixels
Display aspect ratio : 16:9
Frame rate mode : Constant
Frame rate : 24.000 fps
Color space : YUV
Chroma subsampling : 4:2:0
Bit depth : 8 bits
Scan type : Progressive
Compression mode : Lossy
Bits/(Pixel*Frame) : 0.281
Stream size : 10.4 GiB (89%)
Title : VC-1 @ ~14000 kbps
Default : Yes
Forced : No

Audio #1
ID : 2
Format : AC-3
Format/Info : Audio Coding 3
Mode extension : CM (complete main)
Format settings, Endianness : Big
Codec ID : A_AC3
Duration : 1h 46mn
Bit rate mode : Constant
Bit rate : 192 Kbps
Channel(s) : 2 channels
Channel positions : Front: L R
Sampling rate : 48.0 KHz
Frame rate : 31.250 fps (1536 spf)
Compression mode : Lossy
Stream size : 146 MiB (1%)
Title : 2.0 @ 192 kbps
Language : Ukrainian
Default : Yes
Forced : No

Audio #2
ID : 3
Format :
Format/Info : Digital Theater Systems
Mode : 16
Format settings, Endianness : Big
Codec ID : A_DTS
Duration : 1h 46mn
Bit rate mode : Constant
Bit rate : 1 509 Kbps
Channel(s) : 6 channels
Channel positions : Front: L C R, Side: L R, LFE
Sampling rate : 48.0 KHz
Frame rate : 93.750 fps (512 spf)
Bit depth : 16 bits
Compression mode : Lossy
Stream size : 1.12 GiB (10%)
Title : 5.1 @ 1536 kbps
Language : French
Default : No
Forced : No

Text #1
ID : 4
Format : PGS
Codec ID : S_HDMV/PGS
Codec ID/Info : Picture based subtitle format used on BDs/HD-DVDs
Duration : 1h 45mn
Bit rate : 42.2 Kbps
Count of elements : 4094
Stream size : 31.9 MiB (0%)
Language : French
Default : No
Forced : No

Text #2
ID : 5
Format : PGS
Codec ID : S_HDMV/PGS
Codec ID/Info : Picture based subtitle format used on BDs/HD-DVDs
Duration : 1h 45mn
Bit rate : 31.5 Kbps
Count of elements : 3055
Stream size : 23.8 MiB (0%)
Language : English
Default : No
Forced : No
Скріншоти




За запис звуку з ТБ подяка панам OlegCena та Technomate
За зведення звуку та постер подяка пану Gelios

Джерело: &
Особиста оцінка: 8 - мені сподобалося


Золотий реліз (завантажене не впливає на рейтинг)
 Трекер:    Зареєстрований   

Завантажити / скачати фільм українською



відео для новачків



 Зареєстрований:   2017-08-14 20:02
 Розмір:   11.69 GB 
 Оцінка фільму:   9.6/10 (Голосів: 27)
   
Інші релізи
gesko 
Новенький


З нами з: 16.02.17
Востаннє: 14.05.19
Повідомлень: 18

2017-08-20 18:22  
Чудовий приклад милого, провінційного шарму французького кінематографу. Це дивовижно, як вони вміють перетворити будь який голлівудський фастфуд на Gratin Dauphinois (не про цю стрічку, а взагалі). Ніхто в Європі не знімає так, як французи, ні де немає таких вишуканих жінок (акторок) як Одрі Тоту, Софі Марсо, Маріон Котіяр, Єва Грін ті інш. Кожна з них - ціла історія. Ти дивишся, наприклад, фільмографію Маріон Котіяр і з кожною стрічкою складаєш пазл ії багатогранної Величі. Дивіться більше такого кіно!
bisivka 
Новенький


З нами з: 08.03.17
Востаннє: 21.05.19
Повідомлень: 22

2017-08-20 22:38  
Легкий і смішний фільм.
0mage0 
VIP


З нами з: 06.10.15
Востаннє: 21.05.19
Повідомлень: 465

2017-08-26 21:55  
Гарний фільм, посміявся Happy Переклад загалом непоганий, але навіщо ж оцей "капець" вживати? Це ж московське лайно.
fatum69 
Новенький


З нами з: 10.12.16
Востаннє: 21.05.19
Повідомлень: 16

2017-09-12 14:05  
Я Ваше авто відразу впізнав по номерах "АА", бо в нас тут всі "АТ"
Адаптація на 5+

ananserr 
Новенький


З нами з: 24.11.16
Востаннє: 11.05.19
Повідомлень: 14

2017-10-01 20:38  
10/10! Дуже смішний і позитивний фільм. І переклад дуже порадував Happy
Juljchik 
Частий відвідувач


З нами з: 27.08.11
Востаннє: 15.04.19
Повідомлень: 34

2019-01-12 00:41  
Добриий вечір) А можна завантажити субтитри окр. файлом .srt? Дякую заздалегідь!
igor911 
Модератор відео


З нами з: 18.01.08
Востаннє: 21.05.19
Повідомлень: 12517

2019-01-12 01:23  
Juljchik написано:
А можна завантажити субтитри окр. файлом .srt?

можна

Ваш часовий пояс: GMT + 2 Години

Нова тема   Відповісти