Він і Вона (Monsieur et Madame Adelman) / Mr & Mme Adelman (2017) AVC

Нові коментарі

Нова тема   Відповісти
Автор Повідомлення
Anonymous 







2017-08-14 17:01  
Він і Вона / Monsieur et Madame Adelman / Mr & Mme Adelman (2017) AVC

Він і Вона (Monsieur et Madame Adelman) / Mr & Mme Adelman (2017) AVC


Жанр: комедія, мелодрама
Країна: Франція, Бельгія



Кінокомпанія: Les Films du Kiosque, France 2 Cinéma, Orange Studio, Le Pacte, Chaocorp, Umedia, Canal+, France Télévisions, Ciné+, Cinéventure, Indéfilms 4, Cofimage 27, Sofica Manon 6, Cinémage 10, uFund, Région Ile-de-France, Procirep, Angoa, Soficinéma 11 Développement, Manon Production 5, A Plus Image Développement 6, Palatine Etoile 12 Développement, Cofimage Développement 4
Режисер: Ніколя Бедос / Nicolas Bedos
Актори: Дорія Тільє / Doria Tillier, Ніколя Бедос / Nicolas Bedos, Дені Подалідес / Denis Podalydès, Антуан Гуї / Antoine Gouy, Жюльєн Буассельє / Julien Boisselier, Крістіана Мілле / Christiane Millet, П'єр Ардіті / Pierre Arditi, Забу Брайтман / Zabou Breitman, Жан-П'єр Лорі / Jean-Pierre Lorit та інші

Сюжет:
Події фільму розгортаються в Парижі. Відносини між Віктором (Ніколя Бедос) і Сарою (Дорія Тільє) зав'язалися випадково. Тоді в барі вони ще не знали, що їхні життєві інтереси настільки близькі. Віктор – письменник-початківець, а Сара – магістр з класичної літератури. Познайомившись ближче, вони вже не змогли жити одне без одного. Та попри 45-річний досвід відносин, їхні почуття не згасли.
Офіційний український трейлер:

Вікова категорія: 16+
Тривалість: 02:00:26
Якість: AVC
Відео:
кодек:
розмір кадру: 1024 х 426
бітрейт: 2320 кб/с
примітка: російський відеоряд

Аудіо:
мова: українська
переклад: професійний дубльований | Tretyakoff production
кодек: 2.0
бітрейт: 192 кб/с
Info
Код:
Complete name               : Mr and Mme Adelman (2017) [Ukr] AVC [Hurtom].
Format                      :
Format version              : Version 4 / Version 2
File size                   : 2.11 GiB
Duration                    : 2 h 0 min
Overall bit rate            : 2 513 kb/s
Movie name                  : Він і Вона / Monsieur et Madame Adelman / Mr & Mme Adelman (2017) [Ukr] AVC [Hurtom]
Released date               : 2017
Cover                       : Yes
Comment                     : http://www.imdb.com/title/tt6095616/
Attachments                 : cover.jpg
ARTIST                      : Дорія Тільє / Doria Tillier, Ніколя Бедос / Nicolas Bedos, Дені Подалідес / Denis Podalydès, Антуан Гуї / Antoine Gouy, Жюльєн Буассельє / Julien Boisselier, Крістіана Мілле / Christiane Millet, П'єр Ардіті / Pierre Arditi, Забу Брайтман / Zabou Breitman, Жан-П'єр Лорі / Jean-Pierre Lorit та інші
DIRECTOR                    : Ніколя Бедос / Nicolas Bedos
GENRE                       : комедія, мелодрама
SYNOPSIS                    : Події фільму розгортаються в Парижі. Відносини між Віктором (Ніколя Бедос) і Сарою (Дорія Тільє) зав'язалися випадково. Тоді в барі вони ще не знали, що їхні життєві інтереси настільки близькі. Віктор – письменник-початківець, а Сара – магістр з класичної літератури. Познайомившись ближче, вони вже не змогли жити одне без одного. Та попри 45-річний досвід відносин, їхні почуття не згасли.
Url                         : https://toloka.to/t83470

Video
ID                          : 1
Format                      : AVC
Format/Info                 : Advanced Video Codec
Format profile              : [email protected]
Format settings, CABAC      : Yes
Format settings, RefFrames  : 10 frames
Codec ID                    : V_MPEG4/ISO/AVC
Duration                    : 2 h 0 min
Bit rate                    : 2 320 kb/s
Width                       : 1 024 pixels
Height                      : 426 pixels
Display aspect ratio        : 2.35:1
Original display aspect rat : 2.35:1
Frame rate mode             : Constant
Frame rate                  : 24.000 FPS
Color space                 : YUV
Chroma subsampling          : 4:2:0
Bit depth                   : 8 bits
Scan type                   : Progressive
Bits/(Pixel*Frame)          : 0.222
Stream size                 : 1.95 GiB (92%)
Title                       : Він і Вона / Monsieur et Madame Adelman / Mr & Mme Adelman (2017) AVC
Writing library             : core 148 r2597 e86f3a1
Encoding settings           : cabac=1 / ref=10 / deblock=1:-3:-2 / analyse=0x3:0x113 / me=umh / subme=10 / psy=1 / psy_rd=1.00:0.00 / mixed_ref=1 / me_range=32 / chroma_me=1 / trellis=2 / 8x8dct=1 / cqm=0 / deadzone=21,11 / fast_pskip=1 / chroma_qp_offset=-2 / threads=12 / lookahead_threads=2 / sliced_threads=0 / nr=0 / decimate=0 / interlaced=0 / bluray_compat=0 / constrained_intra=0 / bframes=8 / b_pyramid=2 / b_adapt=2 / b_bias=0 / direct=3 / weightb=1 / open_gop=0 / weightp=2 / keyint=240 / keyint_min=24 / scenecut=40 / intra_refresh=0 / rc_lookahead=40 / rc=2pass / mbtree=1 / bitrate=2320 / ratetol=1.0 / qcomp=0.60 / qpmin=0 / qpmax=69 / qpstep=4 / cplxblur=20.0 / qblur=0.5 / ip_ratio=1.40 / aq=1:1.00
Language                    : French
Default                     : Yes
Forced                      : No

Audio
ID                          : 2
Format                      : AC-3
Format/Info                 : Audio Coding 3
Format settings, Endianness : Big
Codec ID                    : A_AC3
Duration                    : 2 h 0 min
Bit rate mode               : Constant
Bit rate                    : 192 kb/s
Channel(s)                  : 2 channels
Channel positions           : Front: L R
Sampling rate               : 48.0 kHz
Frame rate                  : 31.250 FPS (1536 SPF)
Bit depth                   : 16 bits
Compression mode            : Lossy
Stream size                 : 165 MiB (8%)
Title                       : Dub [Megogo] 2.0 192 Kbps
Language                    : Ukrainian
Service kind                : Complete Main
Default                     : Yes
Forced                      : Yes
Ще скріншоти:
Джерело: &
Подяка за українську доріжку п.dark_inwhite


 Трекер:    Зареєстрований   

Завантажити / скачати фільм українською



відео для новачків



 Зареєстрований:   2017-08-14 19:48
 Розмір:   2.11 GB 
 Оцінка фільму:   5.8/10 (Голосів: 30)
   
Інші релізи
   Він і Вона / Mr & Mme Adelman (2017) 1080p sergiyko.5  44 / 0   4 GB   2017-08-14 16:34 
   Він і Вона / Mr & Mme Adelman (2017) dark_inwhite  117 / 0   1.43 GB   2017-08-14 14:18 
HERON 
Новенький


З нами з: 03.02.17
Востаннє: 17.09.17
Повідомлень: 10

2017-09-02 15:29  
для мене це найкраща картина 17 року.дякую.
jaral 
Відео Гуртом - підтримка та поширення
Відео Гуртом - підтримка та поширення


З нами з: 18.10.07
Востаннє: 19.09.17
Повідомлень: 442

2017-09-05 00:41  
Anonymous написано:
примітка: російський відеоряд
Недогледів припиняю роздачу, знову підсунули русифікований відеоряд!
vladimirrem 
Новенький


З нами з: 28.02.15
Востаннє: 14.09.17
Повідомлень: 3

2017-09-13 21:16  
Хороший фільм. Щирий
Ваш часовий пояс: GMT + 2 Години

Нова тема   Відповісти