Він і Вона / Mr & Mme Adelman (2017) 1080p

Нові коментарі

Нова тема   Відповісти
Автор Повідомлення
sergiyko.5 
VIP


З нами з: 25.02.16
Востаннє: 17.10.17
Повідомлень: 1133

2017-08-14 15:06  
Він і Вона / Mr & Mme Adelman (2017) 1080p

Він і Вона / Mr & Mme Adelman (2017) 1080p

Жанр: комедія, мелодрама
Країна: Франція, Бельгія
Кінокомпанія: Canal+ [fr], Angoa, Chaocorp, Cofimage 27, Le Pacte, uFund, uMedia Family, Orange Studio, Procirep
Режисер: Ніколя Бедос
Актори: Дорія Тільє, Ніколя Бедос, Дені Подалідес, Ніколя Бедос, Жюльєн Буассельє

Сюжет:
Події фільму розгортаються в Парижі. Відносини між Віктором (Ніколя Бедос) і Сарою (Дорія Тільє) зав'язалися випадково. Тоді в барі вони ще не знали, що їхні життєві інтереси настільки близькі. Віктор – письменник-початківець, а Сара – магістр з класичної літератури. Познайомившись ближче, вони вже не змогли жити одне без одного. Та попри 45-річний досвід відносин, їхні почуття не згасли.



Тривалість: 02:00:27
Якість:

Відео: кодек: розмір кадру: 1920 х 800 бітрейт: 4600 кб/с | рос.відеоряд |
Аудіо: мова: українська переклад: професійний дубльований кодек: 2.0 бітрейт: 192 кб/с | MEGOGO | Tretyakoff production
Про файл:
General
Unique ID : 226174036812910231030069542554638951890 (0xAA2788F6AEFE1DB8B15B3EEE701F25D2)
Complete name : D:\Torrents\FILMS\Mr.and.Mme.Adelman.2017.1080p..Ukr.
Format :
Format version : Version 4 / Version 2
File size : 4.00 GiB
Duration : 2 h 0 min
Overall bit rate : 4 759 kb/s
Movie name : Mr and Mme Adelman 2017 1080p
Encoded date : UTC 2017-08-14 13:19:31
Writing application : mkvmerge v14.0.0 ('Flow') 64bit
Writing library : libebml v1.3.4 + libmatroska v1.4.5
Cover : Yes
Attachments : cover.jpg

Video
ID : 1
Format : AVC
Format/Info : Advanced Video Codec
Format profile : [email protected]
Format settings, CABAC : Yes
Format settings, RefFrames : 5 frames
Codec ID : V_MPEG4/ISO/AVC
Duration : 2 h 0 min
Bit rate : 4 565 kb/s
Width : 1 920 pixels
Height : 800 pixels
Display aspect ratio : 2.40:1
Frame rate mode : Constant
Frame rate : 24.000 FPS
Color space : YUV
Chroma subsampling : 4:2:0
Bit depth : 8 bits
Scan type : Progressive
Bits/(Pixel*Frame) : 0.124
Stream size : 3.84 GiB (96%)
Title : Mr and Mme Adelman 2017 1080p
Language : English
Default : Yes
Forced : No
Color range : Limited
Color primaries : BT.709
Transfer characteristics : BT.709
Matrix coefficients : BT.709

Audio
ID : 2
Format : AC-3
Format/Info : Audio Coding 3
Format settings, Endianness : Big
Codec ID : A_AC3
Duration : 2 h 0 min
Bit rate mode : Constant
Bit rate : 192 kb/s
Channel(s) : 2 channels
Channel positions : Front: L R
Sampling rate : 48.0 kHz
Frame rate : 31.250 FPS (1536 SPF)
Bit depth : 16 bits
Compression mode : Lossy
Stream size : 165 MiB (4%)
Title : DUB
Language : Ukrainian
Service kind : Complete Main
Default : Yes
Forced : No

Menu
00:00:00.000 : en:Глава 1
00:07:39.208 : en:Глава 2
00:13:02.958 : en:Глава 3
00:17:24.208 : en:Глава 4
00:24:07.333 : en:Глава 5
00:28:01.708 : en:Глава 6
00:33:11.208 : en:Глава 7
00:38:45.249 : en:Глава 8
00:46:03.249 : en:Глава 9
00:52:06.290 : en:Глава 10
00:59:30.206 : en:Глава 11
01:06:50.581 : en:Глава 12
01:13:31.705 : en:Глава 13
01:19:48.580 : en:Глава 14
01:27:32.246 : en:Глава 15
01:33:23.703 : en:Глава 16
01:38:20.535 : en:Глава 17
01:44:27.617 : en:Глава 18
01:50:35.074 : en:Глава 19
Скріншоти:


Подяка за український звук користувачу dark_inwhite


 Трекер:    Зареєстрований   

Завантажити / скачати фільм українською



відео для новачків



 Зареєстрований:   2017-08-14 16:34
 Розмір:   4 GB 
 Оцінка фільму:   8.8/10 (Голосів: 20)
   
Інші релізи
   Він і Вона (Monsieur et Madame Adelman) / Mr & Mme Adelman (2017) AVC igor911  45 / 0   2.11 GB   2017-08-14 19:48 
   Він і Вона / Mr & Mme Adelman (2017) dark_inwhite  152 / 3   1.43 GB   2017-08-14 14:18 
bot 
робот


З нами з: 30.09.07
Востаннє: 26.05.05
Повідомлень: 17694

2017-08-14 15:06  
Тему перенесено з Фільми в HD до форуму Анонси релізів


sergiyko.5

bot 
робот


З нами з: 30.09.07
Востаннє: 26.05.05
Повідомлень: 17694

2017-08-14 16:34  
Тему перенесено з Анонси релізів до форуму Фільми в HD


sergiyko.5

mrsdoubtfire 
Свій


З нами з: 22.10.15
Востаннє: 17.10.17
Повідомлень: 126

2017-08-14 19:02  
Офіційний трейлер:
https://www.youtube.com/watch?v=rGHK14A_n2I

ingwar 
Модератор літератури


З нами з: 08.03.08
Востаннє: 16.10.17
Повідомлень: 1235

2017-08-15 11:18  
А золота не буде? Happy
igor911 
Відео Гуртом
Відео Гуртом


З нами з: 18.01.08
Востаннє: 17.10.17
Повідомлень: 7904

2017-08-15 11:34  
ingwar написано:
А золота не буде?

буде, після оновлення до 'а.

jaral 
Відео Гуртом - підтримка та поширення
Відео Гуртом - підтримка та поширення


З нами з: 18.10.07
Востаннє: 17.10.17
Повідомлень: 458

2017-08-16 01:45  
ingwarЗахотів золото на російський відеоряд?
ingwar 
Модератор літератури


З нами з: 08.03.08
Востаннє: 16.10.17
Повідомлень: 1235

2017-08-16 07:48  
jaral написано:
російський відеоряд

Що таке "російський аудіоряд" зрозуміло, але "російський відеоряд" у французькому кіно? Як послідовність кадрів може бути "російською" чи ще якоюсь?

igor911 
Відео Гуртом
Відео Гуртом


З нами з: 18.01.08
Востаннє: 17.10.17
Повідомлень: 7904

2017-08-16 08:54  
ingwar, тут присутні кілька написів російською в кадрі.

Додано через 46 секунд:

та під час титрів

0mage0 
Свій


З нами з: 06.10.15
Востаннє: 16.10.17
Повідомлень: 88

2017-08-29 08:39  
В містері Адельмані незрозумілим чином поєднуються любов до євреїв і захоплення Достоєвським, що був доволі агресивним антисемітом.
Московський відеоряд напружує. Сподіваюсь, можна буде згодом дістати український, або французький чи англійський?

mutomba 
Поважний учасник


З нами з: 20.10.13
Востаннє: 17.10.17
Повідомлень: 202

2017-08-30 16:59  
доволі оригінальне кіно...
Ваш часовий пояс: GMT + 2 Години

Нова тема   Відповісти