Привид у броні / Ghost In The Shell (2017) 720p-mini (60 fps)

Нові коментарі

Нова тема   Відповісти
Автор Повідомлення
Drool 
VIP


З нами з: 17.04.10
Востаннє: 12.12.17
Повідомлень: 1411

2017-08-14 12:15  
Привид у броні / Ghost In The Shell (2017) 720p-mini (60 fps)

Привид у броні / Ghost In The Shell (2017) 720p-mini (60 fps)


Жанр: бойовик, драма, фантастика, кримінал
Країна: США, Індія, Китай, Японія, Гонконг, Нова Зеландія, Канада, Австралія


Діти до 13 років допускаються на фільм тільки з батьками
Настійне застереження батькам. Деякий матеріал може бути невідповідним для дітей до 13 років. Цей рейтинг показує, що оцінений фільм може бути невідповідним для дітей. Батьки повинні бути особливо обережні, дозволяючи своїм маленьким дітям перегляд. Грубе або тривале насильство відсутнє; сексуальна орієнтація на наготу відсутня; деякі сцени вживання наркотиків можуть бути присутніми; можна почути одиничні вживання грубої сексуальної лексики. Присутня епізодична оголеність (не враховуючи репродуктивні органи). Присутні сексуальні натяки і натяки на гомосексуалізм чи сексуальні збочення.
Кінокомпанія: Paramount Pictures, DreamWorks, Reliance Entertainment
Режисер: Руперт Сандерс
Актори: Скарлет Йоганссон, Майкл Пітт, Такеші Кітано, Пілу Асбек, Жюльєтт Бінош, Чін Ган, Крістофер Обі, Ріла Фукусіма, Ютака Ізумігара, Ласарус Ратуере

Сюжет:
У найближчому майбутньому Матоко Кусанагі на прізвисько Майор буде першою в своєму роді. Колись вона була врятована в небезпечній аварії і за допомогою кібер-технологій перетворена в ідеального солдата, щоб зупинити найнебезпечніших геніїв кримінального світу. Люди того часу починають замінювати кібернетичними аналогами все, що тільки можна. Навіть свій розум... Тоді тероризм досягає такого рівня, що хакери проникають в розум людей і контролюють його. Тільки Майор може зупинити це. Але одного разу вона розуміє, що їй весь час брехали – її життя не врятували, а вкрали. Майор хоче дізнатися всі деталі свого минулого, щоб покарати винних і запобігти подібному в майбутньому.


Тривалість: 01:46:56
Якість: 720p-mini
Відео:
кодек:
розмір кадру: 1280x720
бітрейт: 6255 кб/с
crf: 16.6
кадрів на секунду: 60.000 к/с

Аудіо:
мова: українська
переклад: професійний дубльований
кодек: 2.0
бітрейт: 192 кб/с

Субтитри:
мова: українська
тип: програмні (м'які)
формат: *.srt
Info
Код:
General
Unique ID                                : 7338580125011338539833081365706471451 (0x5855BEF5E045A79F9EFCDE829BA781B)
Complete name                            : /mnt/disk_e/Video/Films/Ghost.In.The.Shell.2017.Ukr.Dub-iTunes..720p-mini.60fps.
Format                                   :
Format version                           : Version 4 / Version 2
File size                                : 4.91 GiB
Duration                                 : 1h 46mn
Overall bit rate                         : 6 578 Kbps
Movie name                               : Привид у броні / Ghost In The Shell (2017) 720p-mini [60 fps] | NNNB
Encoded date                             : UTC 2017-08-14 10:20:12
Writing application                      : mkvmerge v14.0.0 ('Flow') 64bit
Writing library                          : libebml v1.3.4 + libmatroska v1.4.7
Attachements                             : cover.png
DURATION                                 : 01:44:50.373000000
NUMBER_OF_FRAMES                         : 76
NUMBER_OF_BYTES                          : 3600
_STATISTICS_WRITING_APP                  : mkvmerge v14.0.0 ('Flow') 64bit
_STATISTICS_WRITING_DATE_UTC             : 2017-08-14 10:20:12
_STATISTICS_TAGS                         : BPS DURATION NUMBER_OF_FRAMES NUMBER_OF_BYTES

Video
ID                                       : 1
Format                                   : AVC
Format/Info                              : Advanced Video Codec
Format profile                           : [email protected]
Format settings, CABAC                   : Yes
Format settings, ReFrames                : 9 frames
Codec ID                                 : V_MPEG4/ISO/AVC
Duration                                 : 1h 46mn
Bit rate                                 : 6 255 Kbps
Width                                    : 1 280 pixels
Height                                   : 720 pixels
Display aspect ratio                     : 16:9
Frame rate mode                          : Constant
Frame rate                               : 60.000 fps
Color space                              : YUV
Chroma subsampling                       : 4:2:0
Bit depth                                : 8 bits
Scan type                                : Progressive
Bits/(Pixel*Frame)                       : 0.113
Stream size                              : 4.67 GiB (95%)
Title                                    : Привид у броні / Ghost In The Shell (2017) 720p-mini [60 fps] | NNNB
Writing library                          : core 146 r2538 121396c
Encoding settings                        : cabac=1 / ref=9 / deblock=1:0:0 / analyse=0x3:0x113 / me=umh / subme=10 / psy=1 / psy_rd=1.00:0.00 / mixed_ref=1 / me_range=24 / chroma_me=1 / trellis=2 / 8x8dct=1 / cqm=0 / deadzone=21,11 / fast_pskip=0 / chroma_qp_offset=-2 / threads=12 / lookahead_threads=1 / sliced_threads=0 / nr=0 / decimate=1 / interlaced=0 / bluray_compat=0 / constrained_intra=0 / bframes=5 / b_pyramid=2 / b_adapt=2 / b_bias=0 / direct=3 / weightb=1 / open_gop=0 / weightp=2 / keyint=250 / keyint_min=25 / scenecut=40 / intra_refresh=0 / rc=crf / mbtree=0 / crf=16.6 / qcomp=0.60 / qpmin=0 / qpmax=69 / qpstep=4 / ip_ratio=1.40 / pb_ratio=1.30 / aq=3:1.00
Default                                  : Yes
Forced                                   : Yes
DURATION                                 : 01:46:56.667000000
NUMBER_OF_FRAMES                         : 385000
NUMBER_OF_BYTES                          : 5118542069
_STATISTICS_WRITING_APP                  : mkvmerge v14.0.0 ('Flow') 64bit
_STATISTICS_WRITING_DATE_UTC             : 2017-08-14 10:20:12
_STATISTICS_TAGS                         : BPS DURATION NUMBER_OF_FRAMES NUMBER_OF_BYTES

Audio
ID                                       : 2
Format                                   : AC-3
Format/Info                              : Audio Coding 3
Format profile                           : Dolby Digital
Mode extension                           : CM (complete main)
Format settings, Endianness              : Big
Codec ID                                 : A_AC3
Duration                                 : 1h 46mn
Bit rate mode                            : Constant
Bit rate                                 : 192 Kbps
Channel(s)                               : 2 channels
Channel positions                        : Front: L R
Sampling rate                            : 48.0 KHz
Compression mode                         : Lossy
Stream size                              : 147 MiB (3%)
Title                                    : 2.0 @ 192 kbps
Language                                 : Ukrainian
Default                                  : Yes
Forced                                   : Yes

Text
ID                                       : 3
Format                                   : UTF-8
Codec ID                                 : S_TEXT/UTF8
Codec ID/Info                            : UTF-8 Plain Text
Title                                    : Forced
Language                                 : Ukrainian
Default                                  : Yes
Forced                                   : Yes
Скріншоти




Джерело відеоряду:
Особиста оцінка: 8 - мені сподобалося


 Трекер:    Зареєстрований   

Завантажити / скачати фільм українською



відео для новачків



 Зареєстрований:   2017-08-14 12:47
 Розмір:   4.91 GB 
 Оцінка фільму:   8.8/10 (Голосів: 17)
   
Ваш часовий пояс: GMT + 2 Години

Нова тема   Відповісти