Великий куш / Snatch. (2000) Remux 1080p 3xUkr/Eng | Sub Eng

Нові коментарі

Нова тема   Відповісти
Автор Повідомлення
IronBee 
Свій


З нами з: 08.02.10
Востаннє: 17.10.17
Повідомлень: 72

2017-08-13 12:55  
Великий куш / Snatch. (2000) Remux 1080p 3xUkr/Eng | Sub Eng

Великий куш / Snatch. (2000) Remux 1080p 3xUkr/Eng | Sub Eng


Жанр: комедія, кримінальний
Країна: Велика Британія, США



Кінокомпанія: Columbia Pictures Corporation, SKA Films
Режисер: Ґай Річі / Guy Ritchie
Актори: Бенісіо Дель Торо / Benicio Del Toro, Денніс Фаріна / Dennis Farina, Вінні Джонс / Vinnie Jones, Бред Піт / Brad Pitt, Рад Сербеджа / Rade Serbedzija, Джейсон Стетгем / Jason Statham, Алан Форд / Alan Ford, Ленні Джеймс / Lennie James, Евен Бреннер / Ewen Bremner, Джейсон Флемінґ / Jason Flemyng, Ґай Річі / Guy Ritchie та інші

Сюжет:
Виконуючи замовлення американського гангстера Ейві, декілька грабіжників на чолі з запеклим гравцем Френкі викрадають великий діамант. Один з членів банди виявляється зрадником, тому про цінну здобич дізнаються інші злочинні угрупування, які починають справжнє полювання на трикляту коштовність...


Тривалість: 01:42:46
Якість: Remux
Відео:
кодек:
розмір кадру: 1920 х 1080
бітрейт: 29.9 Mб/с

Аудіо # 1:
мова: українська (Україна)
переклад: багатоголосий закадровий
кодек: 2.0
бітрейт: 192кб/с

Аудіо # 2:
мова: українська (ICTV)
переклад: багатоголосий закадровий
кодек: 2.0
бітрейт: 192кб/с

Аудіо # 3:
мова: українська (1+1)
переклад: двоголосий закадровий
кодек: 2.0
бітрейт: 192кб/с

Аудіо # 4:
мова: англійська
переклад: оригінал
кодек: 5.1
бітрейт: 4070 кб/с

Аудіо # 5:
мова: англійська (коментарі режисера)
переклад: оригінал
кодек: 2.0
бітрейт: 192кб/с

Субтитри:
мова: англійська
тип: програмні (м'які)
формат: *.srt

Субтитри:
мова: англійська (коментарі режисера)
тип: програмні (м'які)
формат: *.srt
Info
General
Unique ID : 253312140389953782481544007458973181210 (0xBE9224C5F1A08330AAD5CE2643E6651A)
Complete name : E:\Films\Великий куш Snatch. (2000) Remux 1080p 3xUkrEng Sub Eng [Hurtom] .
Format :
Format version : Version 4 / Version 2
File size : 25.0 GiB
Duration : 1 h 42 min
Overall bit rate mode : Variable
Overall bit rate : 34.8 Mb/s
Movie name : Большой куш / Snatch (2000) Blu-ray Remux (1080p) от ivandubskoj
Encoded date : UTC 2017-08-13 09:03:54
Writing application : mkvmerge v14.0.0 ('Flow') 64bit
Writing library : libebml v1.3.4 + libmatroska v1.4.5

Video
ID : 1
Format : AVC
Format/Info : Advanced Video Codec
Format profile : [email protected]
Format settings, CABAC : Yes
Format settings, ReFrames : 4 frames
Codec ID : V_MPEG4/ISO/AVC
Duration : 1 h 42 min
Bit rate mode : Variable
Bit rate : 29.9 Mb/s
Maximum bit rate : 31.0 Mb/s
Width : 1 920 pixels
Height : 1 080 pixels
Display aspect ratio : 16:9
Frame rate mode : Constant
Frame rate : 23.976 (24000/1001) FPS
Color space : YUV
Chroma subsampling : 4:2:0
Bit depth : 8 bits
Scan type : Progressive
Bits/(Pixel*Frame) : 0.602
Stream size : 21.5 GiB (86%)
Language : English
Default : Yes
Forced : No
Color range : Limited
Color primaries : BT.709
Transfer characteristics : BT.709
Matrix coefficients : BT.709

Audio #1
ID : 2
Format : AC-3
Format/Info : Audio Coding 3
Mode extension : CM (complete main)
Format settings, Endianness : Big
Codec ID : A_AC3
Duration : 1 h 42 min
Bit rate mode : Constant
Bit rate : 192 kb/s
Channel(s) : 2 channels
Channel positions : Front: L R
Sampling rate : 48.0 kHz
Frame rate : 31.250 FPS (1536 spf)
Bit depth : 16 bits
Compression mode : Lossy
Stream size : 141 MiB (1%)
Title : MVO [ТК Україна]
Language : Ukrainian
Default : Yes
Forced : No

Audio #2
ID : 3
Format : AC-3
Format/Info : Audio Coding 3
Mode extension : CM (complete main)
Format settings, Endianness : Big
Codec ID : A_AC3
Duration : 1 h 42 min
Bit rate mode : Constant
Bit rate : 192 kb/s
Channel(s) : 2 channels
Channel positions : Front: L R
Sampling rate : 48.0 kHz
Frame rate : 31.250 FPS (1536 spf)
Bit depth : 16 bits
Compression mode : Lossy
Stream size : 141 MiB (1%)
Title : MVO [ТК ICTV]
Language : Ukrainian
Default : No
Forced : No

Audio #3
ID : 4
Format : AC-3
Format/Info : Audio Coding 3
Mode extension : CM (complete main)
Format settings, Endianness : Big
Codec ID : A_AC3
Duration : 1 h 42 min
Bit rate mode : Constant
Bit rate : 192 kb/s
Channel(s) : 2 channels
Channel positions : Front: L R
Sampling rate : 48.0 kHz
Frame rate : 31.250 FPS (1536 spf)
Bit depth : 16 bits
Compression mode : Lossy
Stream size : 141 MiB (1%)
Title : DVO [ТК 1+1]
Language : Ukrainian
Default : No
Forced : No

Audio #4
ID : 5
Format :
Format/Info : Digital Theater Systems
Format profile : MA / Core
Mode : 16
Format settings, Endianness : Big
Codec ID : A_DTS
Duration : 1 h 42 min
Bit rate mode : Variable / Constant
Bit rate : 4 070 kb/s / 1 509 kb/s
Channel(s) : 6 channels
Channel positions : Front: L C R, Side: L R, LFE
Sampling rate : 48.0 kHz
Frame rate : 93.750 FPS (512 spf)
Bit depth : 24 bits
Compression mode : Lossless / Lossy
Stream size : 2.92 GiB (12%)
Title : Original
Language : English
Default : No
Forced : No

Audio #5
ID : 6
Format : AC-3
Format/Info : Audio Coding 3
Mode extension : CM (complete main)
Format settings, Endianness : Big
Codec ID : A_AC3
Duration : 1 h 42 min
Bit rate mode : Constant
Bit rate : 192 kb/s
Channel(s) : 2 channels
Channel positions : Front: L R
Sampling rate : 48.0 kHz
Frame rate : 31.250 FPS (1536 spf)
Bit depth : 16 bits
Compression mode : Lossy
Stream size : 141 MiB (1%)
Title : Commentary
Language : English
Default : No
Forced : No

Text #1
ID : 7
Format : UTF-8
Codec ID : S_TEXT/UTF8
Codec ID/Info : UTF-8 Plain Text
Duration : 1 h 38 min
Bit rate : 67 b/s
Count of elements : 1346
Stream size : 48.8 KiB (0%)
Title : Full
Language : English
Default : No
Forced : No

Text #2
ID : 8
Format : UTF-8
Codec ID : S_TEXT/UTF8
Codec ID/Info : UTF-8 Plain Text
Duration : 1 h 10 min
Bit rate : 5 b/s
Count of elements : 73
Stream size : 2.61 KiB (0%)
Title : Pikey
Language : English
Default : No
Forced : No

Text #3
ID : 9
Format : UTF-8
Codec ID : S_TEXT/UTF8
Codec ID/Info : UTF-8 Plain Text
Duration : 1 h 39 min
Bit rate : 98 b/s
Count of elements : 1439
Stream size : 71.9 KiB (0%)
Title : Commentary
Language : English
Default : No
Forced : No

Menu
00:00:00.000 : en: 1. Start
00:03:57.204 : en: 2. Diamond Snatch
00:06:57.719 : en: 3. Turkish and Tommy
00:09:29.070 : en: 4. Brick Top
00:11:52.981 : en: 5. Boris & His Brother
00:12:51.539 : en: 6. Avi
00:13:48.729 : en: 7. Dough the Head
00:16:31.326 : en: 8. Buying a Caravan
00:20:20.555 : en: 9. Gypsy Bare-Knuckle Champ
00:22:47.335 : en:10. Sol
00:25:17.686 : en:11. Tyrone and His Getaway Car
00:30:02.805 : en:12. Replacement Fighter
00:30:54.858 : en:13. A Dive in the Fourth
00:36:27.524 : en:14. All Bets Are Off
00:39:39.550 : en:15. One-Punch Mickey
00:41:38.837 : en:16. A Problem
00:48:15.771 : en:17. Mickey's Offer
00:53:13.135 : en:18. Not a Bad Moment?
00:59:05.655 : en:19. Bullet-Tooth Tony
01:02:57.653 : en:20. Brick Top's Persuasion
01:07:46.476 : en:21. A Hard Man to Track Down
01:09:13.531 : en:22. All Roads Lead to Boris
01:13:24.048 : en:23. Desert Eagle vs. Replica
01:16:11.549 : en:24. Russian Standoff
01:19:09.061 : en:25. Predictability of Stupidity
01:22:21.988 : en:26. "Look in the Dog."
01:28:12.071 : en:27. "Do Not Knock Him Out."
01:33:57.684 : en:28. Action & Reaction
01:39:23.684 : en:29. End Credits
Скріншоти






Джерело: &
Особиста оцінка: 10 - без зайвих вагань рекомендую всім!


Золотий реліз (завантажене не впливає на рейтинг)
 Трекер:    Зареєстрований   

Завантажити / скачати фільм українською



відео для новачків



 Зареєстрований:   2017-08-13 12:55
 Розмір:   24.96 GB 
 Оцінка фільму:   9.7/10 (Голосів: 12)
   
Інші релізи
   Великий куш / Snatch. (2000) 1080p 3xUkr/Eng | Sub Eng staf777  0 / 0   14.8 GB   2017-02-18 11:26 
   Великий куш / Snatch. (2000) 720p 3xUkr/Eng | Sub Eng igor911  8 / 0   6.78 GB   2015-03-19 12:11 
   Великий куш / Snatch. (2000) 3xUkr/Eng | Sub Eng karvai0  11 / 0   2.18 GB   2014-11-19 23:39 
   Великий куш / Snatch. (2000) AVC Ukr/Rus/Eng Aradesh  2 / 0   2.15 GB   2010-04-20 20:20 
kryk-v.ya. 
Поважний учасник


З нами з: 14.02.14
Востаннє: 17.10.17
Повідомлень: 211

2017-08-14 18:28  
дяка за ремукс...ще б ви не пакували в мкв,було б взагалі супер...
Ваш часовий пояс: GMT + 2 Години

Нова тема   Відповісти