2:22 / 2:22 (2017)

Нові коментарі

Нова тема   Відповісти
Автор Повідомлення
Anonymous 







2017-08-13 05:17  
2:22 / 2:22 (2017)

2:22 / 2:22 (2017)


Жанр: бойовик, містичний трилер
Країна: США, Австралія



Кінокомпанія: Lightstream Entertainment, Pandemonium, Screen Australia, Walk The Walk Entertainment
Режисер: Пол Каррі / Paul Currie
Актори: Міхіль Хейсман / Michiel Huisman, Тереза Палмер / Teresa Palmer, Сем Рід / Sam Reid, Мейв Дермоді / Maeve Dermody, Сімона Кесселл / Simone Kessell, Ремі Хій / Remy Hii, Джон Вотерс / John Waters, Керрі Армстронг / Kerry Armstrong, Річард Дейвіс / Richard Davies, Джессіка Кларк / Jessica Clarke, Маріса Ламоніка / Marisa Lamonica, Енджі Трікер / Angie Tricker та інші

Сюжет:
2:22 після полудня. Для авіадиспетчера Ділана Брансона цей час став не просто цифрами. Кожен день о цій порі з ним щось відбувається. Все почалося з моменту, коли він відвертає зіткнення двох літаків, що ледь не сталось через дивний спалах. Ділан знайомиться з загадковою дівчиною Сарою, що летіла в одному з цих літаків. Після цього-то він і зауважує, що його життя повне шаблонів. Тепер Ділан може багато виправити... Все в цьому світі взаємопов'язано.
Офіційний український трейлер:
Рейтинг MPAA: PG-13 - дітям до 13 років перегляд не бажаний
Вікова категорія: 12+
Тривалість: 01:38:53
Якість:
Відео:
кодек:
розмір кадру: 720 х 304
бітрейт: 1898 кб/с

Аудіо # 1:
мова: українська
переклад: професійний дубльований
кодек: 2.0
бітрейт: 192 кб/с
Info
Код:
General
Complete name               : 2.22 (2017) [Ukr] [Hurtom].avi
Format                      : AVI
Format/Info                 : Audio Video Interleave
File size                   : 1.45 GiB
Duration                    : 1 h 38 min
Overall bit rate            : 2 099 kb/s
Movie name                  : 2:22 / 2:22 (2017) [Hurtom]
Writing application         : VirtualDubModUkr 1.5.10.2 (build 2542/release)
Writing library             : VirtualDubMod build 2542/release
Comment                     : https://toloka.to/t83433

Video
ID                          : 0
Format                      : MPEG-4 Visual
Format profile              : Advanced [email protected]
Format settings             : BVOP1
Format settings, BVOP       : 1
Format settings, QPel       : No
Format settings, GMC        : No warppoints
Format settings, Matrix     : Default (MPEG)
Codec ID                    :
Codec ID/Hint               :
Duration                    : 1 h 38 min
Bit rate                    : 1 898 kb/s
Width                       : 720 pixels
Height                      : 304 pixels
Display aspect ratio        : 2.35:1
Frame rate                  : 23.976 (24000/1001) FPS
Color space                 : YUV
Chroma subsampling          : 4:2:0
Bit depth                   : 8 bits
Scan type                   : Progressive
Compression mode            : Lossy
Bits/(Pixel*Frame)          : 0.362
Stream size                 : 1.31 GiB (90%)
Writing library             : 67

Audio
ID                          : 1
Format                      : AC-3
Format/Info                 : Audio Coding 3
Format settings, Endianness : Big
Codec ID                    : 2000
Duration                    : 1 h 38 min
Bit rate mode               : Constant
Bit rate                    : 192 kb/s
Channel(s)                  : 2 channels
Channel positions           : Front: L R
Sampling rate               : 48.0 kHz
Frame rate                  : 31.250 FPS (1536 SPF)
Bit depth                   : 16 bits
Compression mode            : Lossy
Stream size                 : 136 MiB (9%)
Alignment                   : Split accross interleaves
Interleave, duration        : 42  ms (1.00 video frame)
Interleave, preload duratio : 500  ms
Title                       : UKR Dub [Megogo]
Service kind                : Complete Main


Джерело:
Подяка за українську доріжку п.dark_inwhite

18.09.2017 реліз оновлено - відеоряд замінено на
Перезавантажте, будь ласка, торрент.


 Трекер:    Зареєстрований   

Завантажити / скачати фільм українською



відео для новачків



 Зареєстрований:   2017-09-18 19:11
 Розмір:   1.45 GB 
 Оцінка фільму:   7.9/10 (Голосів: 95)
   
Інші релізи
   2:22 / 2:22 (2017) AVC Ukr/Eng | Sub Eng igor911  11 / 0   1.78 GB   2017-09-18 18:43 
   2:22 / 2:22 (2017) 1080p Ukr/Eng | Sub Eng igor911  9 / 0   8.3 GB   2017-09-17 18:02 
   2:22 / 2:22 (2017) 720p Ukr/Eng | Sub Eng igor911  6 / 0   4.07 GB   2017-09-17 17:38 
HeiKuroi 
Новенький


З нами з: 16.06.12
Востаннє: 11.12.17
Повідомлень: 20

2017-08-13 13:05  
Хто дивився? Вартий фільм уваги?
OL3X 
VIP


З нами з: 25.11.15
Востаннє: 11.12.17
Повідомлень: 408

2017-08-13 15:27  
HeiKuroi, ходив у кіно. Сюжет слабкий, суть того що відбувається не пояснюється.
Єдине дуже що сподобалося — це операторська робота, постановки сцен естетично дуже красиві.
Фільм на один раз переглянути з дівчиною

raven1976 
VIP


З нами з: 17.04.08
Востаннє: 11.12.17
Повідомлень: 280

2017-08-13 16:32  
Спочатку було засумнівався, але спеціально перевіривши на кількох сайтах, упевнився
2:22 дійсно перекладається як 2:22

жартую... Wide grin

Anonymous 







2017-08-13 16:38  
raven1976 написано:
2:22 дійсно перекладається як 2:22

яка невдача, обламали кайф та тутешню народну забаву - "пограй у перекладача назви" Happy

andriuha80 
Новенький


З нами з: 21.03.14
Востаннє: 10.12.17
Повідомлень: 21

2017-08-13 16:41  
Мені сподобалось. Дещо шаблонно, але гарний, "легкий" фільм. І красиво знятий. 8/10
lozinska 
Свій


З нами з: 20.04.08
Востаннє: 09.12.17
Повідомлень: 63

2017-08-13 17:43  
Втомило, коли закінчилось - відчула полегшення. Хоч і полюбляю таку тематику, якесь воно таке... ніяке трохи.
Alex-doctor 
Новенький


З нами з: 17.02.13
Востаннє: 10.12.17
Повідомлень: 15

2017-08-16 21:39  
Доволі чудовий фільм...особливо для перегляду зі своєю половинкою...після напруженого дня...
chuknagumda 
Поважний учасник


З нами з: 29.12.08
Востаннє: 10.12.17
Повідомлень: 179

2017-08-16 23:13  
зато в перекладі імен - справжній граматичний понос - бачу одне а пишу що в голову взбреде
Hulio9117 
Новенький


З нами з: 29.11.16
Востаннє: 10.12.17
Повідомлень: 1

2017-08-19 20:41  
прикольний фільм) на разок зійде особливо для закоханих пар
Anonymous 







2017-09-18 19:13  
Реліз оновлено - відеоряд замінено на .
Перезавантажте, будь ласка, торрент.

miroslav95 
Новенький


З нами з: 28.02.15
Востаннє: 12.12.17
Повідомлень: 20

2017-10-12 12:45  
Фільм нецікавий, не рекомендую.
Elbrujo 
Новенький


З нами з: 01.11.11
Востаннє: 11.12.17
Повідомлень: 9

2017-10-22 14:50  
Норм фільм.
hetzendorf 
Відео Гуртом - підтримка та поширення
Відео Гуртом - підтримка та поширення


З нами з: 23.07.15
Востаннє: 12.12.17
Повідомлень: 628

2017-11-11 00:40  
OL3X написано:
Сюжет слабкий, суть того що відбувається не пояснюється.

Якраз сюжет вельми годний і по ходу усе пояснюється, наприкінці розжовується настільки, що й дошколяр второпає, але триває усе так нудно й мляво, що капець >_< Детальніше там >>>

olvika1 
Новенький


З нами з: 17.09.14
Востаннє: 11.12.17
Повідомлень: 1

2017-12-10 01:35  
Фільм милий. І цікавий. Але більше милий.
Ваш часовий пояс: GMT + 2 Години

Нова тема   Відповісти