2:22 / 2:22 (2017) AVC Ukr/Eng | Sub Eng

Нові коментарі

Нова тема   Відповісти
Автор Повідомлення
Anonymous 







2017-08-13 04:27  
2:22 / 2:22 (2017) AVC Ukr/Eng | Sub Eng

2:22 / 2:22 (2017) AVC Ukr/Eng | Sub Eng


Жанр: бойовик, містичний трилер
Країна: США, Австралія



Кінокомпанія: Lightstream Entertainment, Pandemonium, Screen Australia, Walk The Walk Entertainment
Режисер: Пол Каррі / Paul Currie
Актори: Міхіль Хейсман / Michiel Huisman, Тереза Палмер / Teresa Palmer, Сем Рід / Sam Reid, Мейв Дермоді / Maeve Dermody, Сімона Кесселл / Simone Kessell, Ремі Хій / Remy Hii, Джон Вотерс / John Waters, Керрі Армстронг / Kerry Armstrong, Річард Дейвіс / Richard Davies, Джессіка Кларк / Jessica Clarke, Маріса Ламоніка / Marisa Lamonica, Енджі Трікер / Angie Tricker та інші

Сюжет:
2:22 після полудня. Для авіадиспетчера Ділана Брансона цей час став не просто цифрами. Кожен день о цій порі з ним щось відбувається. Все почалося з моменту, коли він відвертає зіткнення двох літаків, що ледь не сталось через дивний спалах. Ділан знайомиться з загадковою дівчиною Сарою, що летіла в одному з цих літаків. Після цього-то він і зауважує, що його життя повне шаблонів. Тепер Ділан може багато виправити... Все в цьому світі взаємопов'язано.
Офіційний український трейлер:
Рейтинг MPAA: PG-13 - дітям до 13 років перегляд не бажаний
Вікова категорія: 12+
Тривалість: 01:38:53
Якість: AVC
Відео:
кодек:
розмір кадру: 1024 х 424
бітрейт: 1864 кб/с
примітка: оригінальний (англомовний) відеоряд

Аудіо # 1:
мова: українська
переклад: професійний дубльований
кодек: 2.0
бітрейт: 192 кб/с

Аудіо # 2:
мова: англійська
переклад: оригінал
кодек: 5.1
бітрейт: 384 кб/с

Субтитри:
мова: англійська
тип: програмні (м'які)
формат: *.srt

Збережено оригінальні розділи
Info
Код:
Complete name               : 2.22 (2017) [Ukr,Eng sub.Eng] AVC [Hurtom].
Format                      :
Format version              : Version 4 / Version 2
File size                   : 1.69 GiB
Duration                    : 1 h 38 min
Overall bit rate            : 2 441 kb/s
Movie name                  : 2:22 / 2:22 (2017) [Ukr,Eng sub.Eng] AVC [Hurtom]
Released date               : 2017
Cover                       : Yes
Comment                     : http://www.imdb.com/title/tt1131724/
Attachments                 : cover.jpg
ARTIST                      : Міхіль Хейсман / Michiel Huisman, Тереза Палмер / Teresa Palmer, Сем Рід / Sam Reid, Мейв Дермоді / Maeve Dermody, Сімона Кесселл / Simone Kessell, Ремі Хій / Remy Hii, Джон Вотерс / John Waters, Керрі Армстронг / Kerry Armstrong, Річард Дейвіс / Richard Davies, Джессіка Кларк / Jessica Clarke, Маріса Ламоніка / Marisa Lamonica, Енджі Трікер / Angie Tricker та інші
DIRECTOR                    : Пол Каррі  / Paul Currie
GENRE                       : бойовик, містичний трилер
SYNOPSIS                    : 2:22 після полудня. Для авіадиспетчера Ділана Брансона цей час став не просто цифрами. Кожен день о цій порі з ним щось відбувається. Все почалося з моменту, коли він відвертає зіткнення двох літаків, що ледь не сталось через дивний спалах. Ділан знайомиться з загадковою дівчиною Сарою, що летіла в одному з цих літаків. Після цього-то він і зауважує, що його життя повне шаблонів. Тепер Ділан може багато виправити... Все в цьому світі взаємопов'язано...
Url                         : https://toloka.to/t83432

Video
ID                          : 1
Format                      : AVC
Format/Info                 : Advanced Video Codec
Format profile              : [email protected]
Format settings, CABAC      : Yes
Format settings, RefFrames  : 10 frames
Codec ID                    : V_MPEG4/ISO/AVC
Duration                    : 1 h 38 min
Bit rate                    : 1 864 kb/s
Width                       : 1 024 pixels
Height                      : 424 pixels
Display aspect ratio        : 2.40:1
Frame rate mode             : Constant
Frame rate                  : 23.976 (24000/1001) FPS
Color space                 : YUV
Chroma subsampling          : 4:2:0
Bit depth                   : 8 bits
Scan type                   : Progressive
Bits/(Pixel*Frame)          : 0.179
Stream size                 : 1.29 GiB (76%)
Title                       : 2:22 / 2:22 (2017) AVC
Writing library             : core 146 r2538 121396c
Encoding settings           : cabac=1 / ref=10 / deblock=1:-3:-3 / analyse=0x3:0x133 / me=umh / subme=11 / psy=1 / psy_rd=1.00:0.07 / mixed_ref=1 / me_range=48 / chroma_me=1 / trellis=2 / 8x8dct=1 / cqm=0 / deadzone=21,11 / fast_pskip=0 / chroma_qp_offset=-3 / threads=6 / lookahead_threads=1 / sliced_threads=0 / nr=0 / decimate=0 / interlaced=0 / bluray_compat=0 / constrained_intra=0 / bframes=10 / b_pyramid=2 / b_adapt=2 / b_bias=0 / direct=3 / weightb=1 / open_gop=0 / weightp=2 / keyint=240 / keyint_min=23 / scenecut=40 / intra_refresh=0 / rc_lookahead=40 / rc=2pass / mbtree=0 / bitrate=1864 / ratetol=1.0 / qcomp=0.60 / qpmin=0 / qpmax=69 / qpstep=4 / cplxblur=20.0 / qblur=0.5 / vbv_maxrate=50000 / vbv_bufsize=62500 / nal_hrd=none / filler=0 / ip_ratio=1.40 / pb_ratio=1.30 / aq=1:1.00
Language                    : English
Default                     : Yes
Forced                      : No

Audio #1
ID                          : 2
Format                      : AC-3
Format/Info                 : Audio Coding 3
Format settings, Endianness : Big
Codec ID                    : A_AC3
Duration                    : 1 h 38 min
Bit rate mode               : Constant
Bit rate                    : 192 kb/s
Channel(s)                  : 2 channels
Channel positions           : Front: L R
Sampling rate               : 48.0 kHz
Frame rate                  : 31.250 FPS (1536 SPF)
Bit depth                   : 16 bits
Compression mode            : Lossy
Stream size                 : 136 MiB (8%)
Title                       : Dub [Megogo] 2.0 192 Kbps [Hurtom]
Language                    : Ukrainian
Service kind                : Complete Main
Default                     : Yes
Forced                      : Yes

Audio #2
ID                          : 3
Format                      : AC-3
Format/Info                 : Audio Coding 3
Format settings, Endianness : Big
Codec ID                    : A_AC3
Duration                    : 1 h 38 min
Bit rate mode               : Constant
Bit rate                    : 384 kb/s
Channel(s)                  : 6 channels
Channel positions           : Front: L C R, Side: L R, LFE
Sampling rate               : 48.0 kHz
Frame rate                  : 31.250 FPS (1536 SPF)
Bit depth                   : 16 bits
Compression mode            : Lossy
Stream size                 : 272 MiB (16%)
Title                       : Original, 5.1 384 Kbps
Language                    : English
Service kind                : Complete Main
Default                     : No
Forced                      : No

Text
ID                          : 4
Format                      : UTF-8
Codec ID                    : S_TEXT/UTF8
Codec ID/Info               : UTF-8 Plain Text
Duration                    : 1 h 31 min
Bit rate                    : 44 b/s
Count of elements           : 981
Stream size                 : 29.8 KiB (0%)
Title                       : Eng Full
Language                    : English
Default                     : No
Forced                      : No

Menu
00:00:00.000                : en:1
00:06:14.457                : en:2
00:11:51.669                : en:3
00:17:33.969                : en:4
00:23:36.039                : en:5
00:29:00.822                : en:6
00:33:37.890                : en:7
00:40:18.999                : en:8
00:45:21.426                : en:9
00:51:59.365                : en:10
00:58:27.961                : en:11
01:02:26.741                : en:12
01:11:45.841                : en:13
01:14:55.655                : en:14
01:22:18.848                : en:15
01:25:23.699                : en:16


Джерело: &
Подяка за українську доріжку п.dark_inwhite


 Трекер:    Зареєстрований   

Завантажити / скачати фільм українською



відео для новачків



 Зареєстрований:   2017-08-13 04:42
 Розмір:   1.69 GB 
 Оцінка фільму:   5/10 (Голосів: 25)
   
Інші релізи
   2:22 / 2:22 (2017) igor911  133 / 2   1.45 GB   2017-08-13 06:28 
   2:22 / 2:22 (2017) 1080p Ukr/Eng | Sub Eng igor911  76 / 3   3.54 GB   2017-08-13 02:22 
Victor_Scythian 
Частий відвідувач


З нами з: 06.01.17
Востаннє: 19.08.17
Повідомлень: 49

2017-08-13 14:47  
Повірте дивитися там нічого, перші 15-20 хвилин і все... кіно просто випаровується...
mennas 
Новенький


З нами з: 04.05.17
Востаннє: 18.08.17
Повідомлень: 4

2017-08-16 22:00  
"2:22 після полудня" це 2:22 р.м. тобто 14:22 це день після обіду
а 2:22 вночі по нашому це 02:22 а.м. тобто після опівночі)

Ваш часовий пояс: GMT + 2 Години

Нова тема   Відповісти