2:22 / 2:22 (2017) AVC Ukr/Eng | Sub Eng

Нові коментарі

Нова тема   Відповісти
Автор Повідомлення
Anonymous 







2017-08-13 03:27  
2:22 / 2:22 (2017) AVC Ukr/Eng | Sub Eng

2:22 / 2:22 (2017) AVC Ukr/Eng | Sub Eng


Жанр: бойовик, містичний трилер
Країна: США, Австралія



Кінокомпанія: Lightstream Entertainment, Pandemonium, Screen Australia, Walk The Walk Entertainment
Режисер: Пол Каррі / Paul Currie
Актори: Міхіль Хейсман / Michiel Huisman, Тереза Палмер / Teresa Palmer, Сем Рід / Sam Reid, Мейв Дермоді / Maeve Dermody, Сімона Кесселл / Simone Kessell, Ремі Хій / Remy Hii, Джон Вотерс / John Waters, Керрі Армстронг / Kerry Armstrong, Річард Дейвіс / Richard Davies, Джессіка Кларк / Jessica Clarke, Маріса Ламоніка / Marisa Lamonica, Енджі Трікер / Angie Tricker та інші

Сюжет:
2:22 після полудня. Для авіадиспетчера Ділана Брансона цей час став не просто цифрами. Кожен день о цій порі з ним щось відбувається. Все почалося з моменту, коли він відвертає зіткнення двох літаків, що ледь не сталось через дивний спалах. Ділан знайомиться з загадковою дівчиною Сарою, що летіла в одному з цих літаків. Після цього-то він і зауважує, що його життя повне шаблонів. Тепер Ділан може багато виправити... Все в цьому світі взаємопов'язано.
Офіційний український трейлер:
Рейтинг MPAA: PG-13 - дітям до 13 років перегляд не бажаний
Вікова категорія: 12+
Тривалість: 01:38:53
Якість: AVC
Відео:
кодек:
розмір кадру: 1024 х 428
бітрейт: 1930 кб/с

Аудіо # 1:
мова: українська
переклад: професійний дубльований
кодек: 2.0
бітрейт: 192 кб/с

Аудіо # 2:
мова: англійська
переклад: оригінал
кодек: 5.1
бітрейт: 448 кб/с

Субтитри:
мова: англійська (SDH)
тип: програмні (м'які)
формат: *.srt

Збережено оригінальні поіменовані розділи, як на Blu-ray
Info
Код:
Complete name               : 2.22 (2017) [Ukr,Eng sub.Eng] AVC [Hurtom].
Format                      :
Format version              : Version 4 / Version 2
File size                   : 1.78 GiB
Duration                    : 1 h 38 min
Overall bit rate            : 2 570 kb/s
Attachments                 : cover.jpg

Video
ID                          : 1
Format                      : AVC
Format/Info                 : Advanced Video Codec
Format profile              : [email protected]
Format settings, CABAC      : Yes
Format settings, RefFrames  : 10 frames
Codec ID                    : V_MPEG4/ISO/AVC
Duration                    : 1 h 38 min
Bit rate                    : 1 930 kb/s
Width                       : 1 024 pixels
Height                      : 428 pixels
Display aspect ratio        : 2.40:1
Frame rate mode             : Constant
Frame rate                  : 23.976 (24000/1001) FPS
Color space                 : YUV
Chroma subsampling          : 4:2:0
Bit depth                   : 8 bits
Scan type                   : Progressive
Bits/(Pixel*Frame)          : 0.184
Stream size                 : 1.33 GiB (75%)
Title                       : 2:22 / 2:22 (2017) AVC [OlLanDGroup-TorpedoUK]
Writing library             : core 146 r2538 121396c
Encoding settings           : cabac=1 / ref=10 / deblock=1:-3:-3 / analyse=0x3:0x133 / me=umh / subme=11 / psy=1 / psy_rd=1.00:0.07 / mixed_ref=1 / me_range=48 / chroma_me=1 / trellis=2 / 8x8dct=1 / cqm=0 / deadzone=21,11 / fast_pskip=0 / chroma_qp_offset=-3 / threads=6 / lookahead_threads=1 / sliced_threads=0 / nr=0 / decimate=0 / interlaced=0 / bluray_compat=0 / constrained_intra=0 / bframes=10 / b_pyramid=2 / b_adapt=2 / b_bias=0 / direct=3 / weightb=1 / open_gop=0 / weightp=2 / keyint=240 / keyint_min=23 / scenecut=40 / intra_refresh=0 / rc_lookahead=40 / rc=2pass / mbtree=0 / bitrate=1930 / ratetol=1.0 / qcomp=0.60 / qpmin=0 / qpmax=69 / qpstep=4 / cplxblur=20.0 / qblur=0.5 / vbv_maxrate=50000 / vbv_bufsize=62500 / nal_hrd=none / filler=0 / ip_ratio=1.40 / pb_ratio=1.30 / aq=1:1.00
Language                    : English
Default                     : Yes
Forced                      : No

Audio #1
ID                          : 2
Format                      : AC-3
Format/Info                 : Audio Coding 3
Format settings, Endianness : Big
Codec ID                    : A_AC3
Duration                    : 1 h 38 min
Bit rate mode               : Constant
Bit rate                    : 192 kb/s
Channel(s)                  : 2 channels
Channel positions           : Front: L R
Sampling rate               : 48.0 kHz
Frame rate                  : 31.250 FPS (1536 SPF)
Bit depth                   : 16 bits
Compression mode            : Lossy
Stream size                 : 136 MiB (7%)
Title                       : Dub [Megogo] 2.0 192 Kbps [Hurtom]
Language                    : Ukrainian
Service kind                : Complete Main
Default                     : Yes
Forced                      : Yes

Audio #2
ID                          : 3
Format                      : AC-3
Format/Info                 : Audio Coding 3
Format settings, Endianness : Big
Codec ID                    : A_AC3
Duration                    : 1 h 38 min
Bit rate mode               : Constant
Bit rate                    : 448 kb/s
Channel(s)                  : 6 channels
Channel positions           : Front: L C R, Side: L R, LFE
Sampling rate               : 48.0 kHz
Frame rate                  : 31.250 FPS (1536 SPF)
Bit depth                   : 16 bits
Compression mode            : Lossy
Stream size                 : 317 MiB (17%)
Title                       : Original, 5.1 448 Kbps
Language                    : English
Service kind                : Complete Main
Default                     : No
Forced                      : No

Text
ID                          : 4
Format                      : UTF-8
Codec ID                    : S_TEXT/UTF8
Codec ID/Info               : UTF-8 Plain Text
Duration                    : 1 h 31 min
Bit rate                    : 46 b/s
Count of elements           : 1165
Stream size                 : 31.6 KiB (0%)
Title                       : Eng SDH
Language                    : English
Default                     : No
Forced                      : No

Menu
00:00:00.000                : en:Patterns Of The Stars
00:09:10.550                : en:Happy Birthday
00:15:56.956                : en:Commercial Jets
00:21:27.286                : en:A Shooting Star
00:30:11.810                : en:Short Story
00:40:33.431                : en:Every Little Thing Matters
00:50:59.056                : en:I'm Sorry
00:58:37.514                : en:Connection
01:05:59.956                : en:We're Them
01:15:01.497                : en:What Am I Missing?
01:22:18.934                : en:The Clock
01:33:00.575                : en:End Credits


Джерело: &
Подяка за українську доріжку п.dark_inwhite

18.09.2017 реліз оновлено - відеоряд замінено на
Перезавантажте, будь ласка, торрент.


 Трекер:    Зареєстрований   

Завантажити / скачати фільм українською



відео для новачків



 Зареєстрований:   2017-09-18 18:43
 Розмір:   1.78 GB 
 Оцінка фільму:   6.5/10 (Голосів: 48)
   
Інші релізи
   2:22 / 2:22 (2017) igor911  59 / 0   1.45 GB   2017-09-18 19:11 
   2:22 / 2:22 (2017) 1080p Ukr/Eng | Sub Eng igor911  26 / 0   8.3 GB   2017-09-17 18:02 
   2:22 / 2:22 (2017) 720p Ukr/Eng | Sub Eng igor911  23 / 1   4.07 GB   2017-09-17 17:38 
Victor_Scythian 
Свій


З нами з: 06.01.17
Востаннє: 13.12.17
Повідомлень: 100

2017-08-13 13:47  
Повірте дивитися там нічого, перші 15-20 хвилин і все... кіно просто випаровується...
mennas 
Новенький


З нами з: 04.05.17
Востаннє: 11.12.17
Повідомлень: 9

2017-08-16 21:00  
"2:22 після полудня" це 2:22 р.м. тобто 14:22 це день після обіду
а 2:22 вночі по нашому це 02:22 а.м. тобто після опівночі)

Anonymous 







2017-09-18 18:45  
реліз оновлено - відеоряд замінено на
Перезавантажте, будь ласка, торрент.

Arcon Sarkel 
Попереджень: 2
Попереджень: 2 


З нами з: 04.03.16
Востаннє: 13.12.17
Повідомлень: 139

2017-09-20 01:13  
Цікавенько, кохання врятує світ.
IvXynta 
Попереджень: 1
Попереджень: 1 


З нами з: 09.05.16
Востаннє: 27.10.17
Повідомлень: 265

2017-09-20 03:47  
mennas
Подивиться, краще фільм "Добрий Знак" -2010 року і не переймайтесь цифрами...

Gentile 
Частий відвідувач


З нами з: 15.12.08
Востаннє: 13.12.17
Повідомлень: 27

2017-09-20 15:11  
філологи дебіли, у них доба має або 23 години, або 25 Wide grin
Якщо це ДРУГА ДВАДЦЯТЬ ДВІ , то доба закінчується двадцять третьою годиною. Якщо ж всетаки двадцять четверта для філологів існує, то доба закінчується коли вже пройде година наступної доби Rolleyes (2) Тобто в такому випадку у добі 25 годин Happy
Зверніть увагу, що філологи всі інші часові виміри (хвилини, секунди, роки, століття і тисячоліття) рахують по-людськи, а не ідіотично як години. Тому в назві третя година (або дві години з хвилинами) названо "друга", а хвилина таки названа "дві"
Wide grin

behemot86 
Новенький


З нами з: 04.10.10
Востаннє: 23.11.17
Повідомлень: 19

2017-09-20 19:45  
Gentile
тобі б шедеври писати на поет. форумах Happy)))

HERON 
Новенький


З нами з: 03.02.17
Востаннє: 12.12.17
Повідомлень: 20

2017-09-21 01:34  
гарниий ,яскравий фільм.дякую
bodyanuk 
Новенький


З нами з: 26.01.17
Востаннє: 06.12.17
Повідомлень: 1

2017-09-21 22:59  
На разок піде без проблем. Можна з дівчиною дивитись, типу "любов" і "створенні бути разом".
IvXynta 
Попереджень: 1
Попереджень: 1 


З нами з: 09.05.16
Востаннє: 27.10.17
Повідомлень: 265

2017-09-22 03:20  
Як мова йде про час то й треба позначати назву фільму згідно Англійського Гринвічу 22 о 3 (Двадцять друга о третій 'ранку' чи то 'за обід'), а як про речі фізико-математичні то й назва відповідна Двоє проти 22-ох. Шо поробиш - містика.
se_verus 
Новенький


З нами з: 12.04.17
Востаннє: 12.12.17
Повідомлень: 19

2017-09-26 14:31  
Трейлер був наче й непоганий, хоча в кіно на фільм потрапити не вдалось. Ну, заціним так, чи воно того варте.
Neolo 
Новенький


З нами з: 13.11.10
Востаннє: 28.11.17
Повідомлень: 13

2017-09-27 18:35  
2:22 Дуже сподобався фільм. Цікаво з першої до останньої хвилини.
roman.shpilman83 
Новенький


З нами з: 20.10.15
Востаннє: 12.11.17
Повідомлень: 1

2017-09-27 19:44  
Класний фільм, хороший музичний супровід. Можливо можете підказати ще фільми на подібну тематику - подорожі в часі, люди котрі знають чи відчувають майбутнє і.т.п.
hetzendorf 
Відео Гуртом - підтримка та поширення
Відео Гуртом - підтримка та поширення


З нами з: 23.07.15
Востаннє: 13.12.17
Повідомлень: 637

2017-11-11 00:39  
Victor_Scythian написано:
Повірте дивитися там нічого, перші 15-20 хвилин і все... кіно просто випаровується...

Не можу не погодитися! Детальніше там >>>

S3M4RiL 
Частий відвідувач


З нами з: 25.09.16
Востаннє: 11.12.17
Повідомлень: 38

2017-11-11 14:01  
Gentile написано:

Взагалі не зрозумів, що за маячню ти тут несеш.
Мимо-філолог.

Ваш часовий пояс: GMT + 2 Години

Нова тема   Відповісти