2:22 / 2:22 (2017) 1080p Ukr/Eng | Sub Eng

Нові коментарі

Нова тема   Відповісти
Автор Повідомлення
Anonymous 







2017-08-13 02:05  
2:22 / 2:22 (2017) 1080p Ukr/Eng | Sub Eng

2:22 / 2:22 (2017) 1080p Ukr/Eng | Sub Eng


Жанр: бойовик, містичний трилер
Країна: США, Австралія



Кінокомпанія: Lightstream Entertainment, Pandemonium, Screen Australia, Walk The Walk Entertainment
Режисер: Пол Каррі / Paul Currie
Актори: Міхіль Хейсман / Michiel Huisman, Тереза Палмер / Teresa Palmer, Сем Рід / Sam Reid, Мейв Дермоді / Maeve Dermody, Сімона Кесселл / Simone Kessell, Ремі Хій / Remy Hii, Джон Вотерс / John Waters, Керрі Армстронг / Kerry Armstrong, Річард Дейвіс / Richard Davies, Джессіка Кларк / Jessica Clarke, Маріса Ламоніка / Marisa Lamonica, Енджі Трікер / Angie Tricker та інші

Сюжет:
2:22 після полудня. Для авіадиспетчера Ділана Брансона цей час став не просто цифрами. Кожен день о цій порі з ним щось відбувається. Все почалося з моменту, коли він відвертає зіткнення двох літаків, що ледь не сталось через дивний спалах. Ділан знайомиться з загадковою дівчиною Сарою, що летіла в одному з цих літаків. Після цього-то він і зауважує, що його життя повне шаблонів. Тепер Ділан може багато виправити... Все в цьому світі взаємопов'язано.
Офіційний український трейлер:
Рейтинг MPAA: PG-13 - дітям до 13 років перегляд не бажаний
Вікова категорія: 12+
Тривалість: 01:38:53
Якість: 1080p
Відео:
кодек:
розмір кадру: 1920 х 804
бітрейт: 10,3 Мб/с [crf=18]

Аудіо # 1:
мова: українська
переклад: професійний дубльований
кодек: 2.0
бітрейт: 192 кб/с

Аудіо # 2:
мова: англійська
переклад: оригінал
кодек: 5.1
бітрейт: 1509 кб/с

Субтитри:
мова: англійська
тип: програмні (м'які)
формат: *.srt

Збережено оригінальні поіменовані розділи, як на Blu-ray
Info
Код:
Complete name               : 2.22 (2017) [Ukr,Eng sub.Eng] 1080p [Hurtom].
Format                      :
Format version              : Version 4 / Version 2
File size                   : 8.30 GiB
Duration                    : 1 h 38 min
Overall bit rate            : 12.0 Mb/s
Cover                       : Yes
Attachments                 : cover.jpg

Video
ID                          : 1
Format                      : AVC
Format/Info                 : Advanced Video Codec
Format profile              : [email protected]
Format settings, CABAC      : Yes
Format settings, RefFrames  : 4 frames
Codec ID                    : V_MPEG4/ISO/AVC
Duration                    : 1 h 38 min
Bit rate                    : 10.3 Mb/s
Width                       : 1 920 pixels
Height                      : 804 pixels
Display aspect ratio        : 2.40:1
Frame rate mode             : Constant
Frame rate                  : 23.976 (24000/1001) FPS
Color space                 : YUV
Chroma subsampling          : 4:2:0
Bit depth                   : 8 bits
Scan type                   : Progressive
Bits/(Pixel*Frame)          : 0.279
Stream size                 : 7.12 GiB (86%)
Title                       : 2:22 / 2:22 (2017) 1080p [ExKinoRay]
Writing library             : core 142 r2431+42 c69a006 tMod [[email protected]:2:0 X86_64]
Encoding settings           : cabac=1 / ref=4 / deblock=1:-3:-3 / analyse=0x3:0x113 / me=umh / subme=10 / psy=1 / fade_compensate=0.00 / psy_rd=1.00:0.05 / mixed_ref=1 / me_range=48 / chroma_me=1 / trellis=2 / 8x8dct=1 / cqm=0 / deadzone=21,11 / fast_pskip=0 / chroma_qp_offset=-2 / threads=12 / lookahead_threads=2 / sliced_threads=0 / nr=0 / decimate=1 / interlaced=0 / bluray_compat=0 / constrained_intra=0 / fgo=0 / bframes=8 / b_pyramid=2 / b_adapt=2 / b_bias=0 / direct=3 / weightb=1 / open_gop=0 / weightp=2 / keyint=250 / keyint_min=23 / scenecut=40 / intra_refresh=0 / rc_lookahead=40 / rc=crf / mbtree=0 / crf=18.0000 / qcomp=0.60 / qpmin=0:0:0 / qpmax=69:69:69 / qpstep=4 / vbv_maxrate=50000 / vbv_bufsize=45000 / crf_max=0.0 / nal_hrd=none / filler=0 / ip_ratio=1.40 / pb_ratio=1.30 / aq=3:1.00 / aq-sensitivity=10.00 / aq-factor=1.00:1.00:1.00 / aq2=0 / aq3=0
Language                    : English
Default                     : Yes
Forced                      : No
Color range                 : Limited
Matrix coefficients         : BT.709

Audio #1
ID                          : 2
Format                      : AC-3
Format/Info                 : Audio Coding 3
Format settings, Endianness : Big
Codec ID                    : A_AC3
Duration                    : 1 h 38 min
Bit rate mode               : Constant
Bit rate                    : 192 kb/s
Channel(s)                  : 2 channels
Channel positions           : Front: L R
Sampling rate               : 48.0 kHz
Frame rate                  : 31.250 FPS (1536 SPF)
Bit depth                   : 16 bits
Compression mode            : Lossy
Stream size                 : 136 MiB (2%)
Title                       : Dub [Megogo] 2.0 [stereo] 192 Kbps [Hurtom]
Language                    : Ukrainian
Service kind                : Complete Main
Default                     : Yes
Forced                      : Yes

Audio #2
ID                          : 3
Format                      :
Format/Info                 : Digital Theater Systems
Mode                        : 16
Format settings, Endianness : Big
Codec ID                    : A_DTS
Duration                    : 1 h 38 min
Bit rate mode               : Constant
Bit rate                    : 1 509 kb/s
Channel(s)                  : 6 channels
Channel positions           : Front: L C R, Side: L R, LFE
Sampling rate               : 48.0 kHz
Frame rate                  : 93.750 FPS (512 SPF)
Bit depth                   : 24 bits
Compression mode            : Lossy
Stream size                 : 1.04 GiB (13%)
Title                       : Original, 5.1 1509 Kbps
Language                    : English
Default                     : No
Forced                      : No

Text
ID                          : 4
Format                      : UTF-8
Codec ID                    : S_TEXT/UTF8
Codec ID/Info               : UTF-8 Plain Text
Duration                    : 1 h 31 min
Bit rate                    : 42 b/s
Count of elements           : 991
Stream size                 : 28.8 KiB (0%)
Language                    : English
Default                     : No
Forced                      : No

Menu
00:00:00.000                : en:Patterns Of The Stars
00:09:10.550                : en:Happy Birthday
00:15:56.956                : en:Commercial Jets
00:21:27.286                : en:A Shooting Star
00:30:11.810                : en:Short Story
00:40:33.431                : en:Every Little Thing Matters
00:50:59.056                : en:I'm Sorry
00:58:37.514                : en:Connection
01:05:59.956                : en:We're Them
01:15:01.497                : en:What Am I Missing?
01:22:18.934                : en:The Clock
01:33:00.575                : en:End Credits


Джерело: &
Подяка за українську доріжку п.dark_inwhite

17.09.2017 реліз оновлено - відеоряд замінено на
Перезавантажте, будь ласка, торрент.


Золотий реліз (завантажене не впливає на рейтинг)
 Трекер:    Зареєстрований   

Завантажити / скачати фільм українською



відео для новачків



 Зареєстрований:   2017-09-17 19:02
 Розмір:   8.3 GB 
 Оцінка фільму:   6.3/10 (Голосів: 56)
   
Інші релізи
   2:22 / 2:22 (2017) igor911  50 / 0   1.45 GB   2017-09-18 20:11 
   2:22 / 2:22 (2017) AVC Ukr/Eng | Sub Eng igor911  38 / 0   1.78 GB   2017-09-18 19:43 
   2:22 / 2:22 (2017) 720p Ukr/Eng | Sub Eng igor911  24 / 0   4.07 GB   2017-09-17 18:38 
TeronUA 
VIP


З нами з: 13.02.09
Востаннє: 19.10.17
Повідомлень: 291

2017-08-14 07:58  
Звучить цікаво.))) Треба подивитись)))
lunatiq 
Новенький


З нами з: 01.02.16
Востаннє: 21.10.17
Повідомлень: 4

2017-08-19 13:12  
початок 10/10
по мірі перегляду фільм впевнено сходить на 3/10

ngxwinger 
Новенький


З нами з: 19.01.14
Востаннє: 21.10.17
Повідомлень: 2

2017-08-20 00:08  
Тільки закінчили перегляд фільму з дружиною - залишились приємні враження. Об'єктивно десь на 7 з 10, але за гарний настрій і те, що фільм тримав біля екрану до кінця - 9 за 10.
0mage0 
Свій


З нами з: 06.10.15
Востаннє: 21.10.17
Повідомлень: 90

2017-08-21 17:13  
Що за "дві двадцять дві"? Це ж позначення часу, мало б бути "друга (година) двадцять дві (хвилини)".
madagaskar1 
VIP


З нами з: 08.05.14
Востаннє: 21.10.17
Повідомлень: 333

2017-08-21 17:16  
якби не красуня Тереза Палмер, напевно б не дивися б цю пародію на день Бабака, хоча початок не поганий
6,5/10

zloydark 
Новенький


З нами з: 11.05.15
Востаннє: 20.10.17
Повідомлень: 16

2017-08-22 21:49  
сподобався 8/10. дякую
nikonkol 
Новенький


З нами з: 12.11.14
Востаннє: 21.10.17
Повідомлень: 8

2017-09-03 19:23  
Один з кращих фільмів за останній час, рекомендую.
Siegfried 
Свій


З нами з: 01.11.11
Востаннє: 20.10.17
Повідомлень: 133

2017-09-05 14:44  
Перша третина - відносно цікаво.
Далі все нудніше, і нудніше.

Такий собі млявий і сонний недодетектив.

Не можу рекомендувати.

3/10

Anonymous 







2017-09-17 19:07  
Реліз оновлено - відеоряд замінено на
Перезавантажте, будь ласка, торрент.

Wysnewetskyj 
Частий відвідувач


З нами з: 30.05.16
Востаннє: 21.10.17
Повідомлень: 39

2017-09-19 19:38  
Не берусь ставити якусь оцінку однак фільм сподобався. Він точно не нудний хоча і трохи наївний.
Ваш часовий пояс: GMT + 2 Години

Нова тема   Відповісти