2:22 / 2:22 (2017) 1080p Ukr/Eng | Sub Eng

Нові коментарі

Нова тема   Відповісти
Автор Повідомлення
Anonymous 







2017-08-13 02:05  
2:22 / 2:22 (2017) 1080p Ukr/Eng | Sub Eng

2:22 / 2:22 (2017) 1080p Ukr/Eng | Sub Eng


Жанр: бойовик, містичний трилер
Країна: США, Австралія



Кінокомпанія: Lightstream Entertainment, Pandemonium, Screen Australia, Walk The Walk Entertainment
Режисер: Пол Каррі / Paul Currie
Актори: Міхіль Хейсман / Michiel Huisman, Тереза Палмер / Teresa Palmer, Сем Рід / Sam Reid, Мейв Дермоді / Maeve Dermody, Сімона Кесселл / Simone Kessell, Ремі Хій / Remy Hii, Джон Вотерс / John Waters, Керрі Армстронг / Kerry Armstrong, Річард Дейвіс / Richard Davies, Джессіка Кларк / Jessica Clarke, Маріса Ламоніка / Marisa Lamonica, Енджі Трікер / Angie Tricker та інші

Сюжет:
2:22 після полудня. Для авіадиспетчера Ділана Брансона цей час став не просто цифрами. Кожен день о цій порі з ним щось відбувається. Все почалося з моменту, коли він відвертає зіткнення двох літаків, що ледь не сталось через дивний спалах. Ділан знайомиться з загадковою дівчиною Сарою, що летіла в одному з цих літаків. Після цього-то він і зауважує, що його життя повне шаблонів. Тепер Ділан може багато виправити... Все в цьому світі взаємопов'язано.
Офіційний український трейлер:
Рейтинг MPAA: PG-13 - дітям до 13 років перегляд не бажаний
Вікова категорія: 12+
Тривалість: 01:38:53
Якість: 1080p
Відео:
кодек:
розмір кадру: 1920 х 796
бітрейт: 4548 кб/с
примітка: оригінальний (англомовний) відеоряд

Аудіо # 1:
мова: українська
переклад: професійний дубльований
кодек: 2.0
бітрейт: 192 кб/с

Аудіо # 2:
мова: англійська
переклад: оригінал
кодек: 5.1
бітрейт: 384 кб/с

Субтитри:
мова: англійська
тип: програмні (м'які)
формат: *.srt

Збережено оригінальні розділи
Info
Код:
Complete name               : 2.22 (2017) [Ukr,Eng sub.Eng] 1080p [Hurtom].
Format                      :
Format version              : Version 4 / Version 2
File size                   : 3.54 GiB
Duration                    : 1 h 38 min
Overall bit rate            : 5 126 kb/s
Movie name                  : 2:22 / 2:22 (2017) [Ukr,Eng sub.Eng] 1080p [Hurtom]
Released date               : 2017
Cover                       : Yes
Comment                     : http://www.imdb.com/title/tt1131724/
Attachments                 : cover.jpg
ARTIST                      : Міхіль Хейсман / Michiel Huisman, Тереза Палмер / Teresa Palmer, Сем Рід / Sam Reid, Мейв Дермоді / Maeve Dermody, Сімона Кесселл / Simone Kessell, Ремі Хій /   Remy Hii, Джон Вотерс / John Waters, Керрі Армстронг / Kerry Armstrong, Річард Дейвіс / Richard Davies, Джессіка Кларк / Jessica Clarke, Маріса Ламоніка / Marisa Lamonica, Енджі Трікер / Angie Tricker та інші
DIRECTOR                    : Пол Каррі  / Paul Currie
GENRE                       : бойовик, містичний трилер
SYNOPSIS                    : 2:22 після полудня. Для авіадиспетчера Ділана Брансона цей час став не просто цифрами. Кожен день о цій порі з ним щось відбувається. Все почалося з моменту, коли він відвертає зіткнення двох літаків, що ледь не сталось через дивний спалах. Ділан знайомиться з загадковою дівчиною Сарою, що летіла в одному з цих літаків. Після цього-то він і зауважує, що його життя повне шаблонів. Тепер Ділан може багато виправити... Все в цьому світі взаємопов'язано...
Url                         : https://toloka.to/t83430

Video
ID                          : 1
Format                      : AVC
Format/Info                 : Advanced Video Codec
Format profile              : [email protected]
Format settings, CABAC      : Yes
Format settings, RefFrames  : 5 frames
Codec ID                    : V_MPEG4/ISO/AVC
Duration                    : 1 h 38 min
Bit rate                    : 4 548 kb/s
Width                       : 1 920 pixels
Height                      : 796 pixels
Display aspect ratio        : 2.40:1
Frame rate mode             : Constant
Frame rate                  : 23.976 (23976/1000) FPS
Color space                 : YUV
Chroma subsampling          : 4:2:0
Bit depth                   : 8 bits
Scan type                   : Progressive
Bits/(Pixel*Frame)          : 0.124
Stream size                 : 3.14 GiB (89%)
Title                       : 2:22 / 2:22 (2017) 1080p [BLUEBIRD]
Language                    : English
Default                     : Yes
Forced                      : No
Color range                 : Limited
Color primaries             : BT.709
Transfer characteristics    : BT.709
Matrix coefficients         : BT.709

Audio #1
ID                          : 2
Format                      : AC-3
Format/Info                 : Audio Coding 3
Format settings, Endianness : Big
Codec ID                    : A_AC3
Duration                    : 1 h 38 min
Bit rate mode               : Constant
Bit rate                    : 192 kb/s
Channel(s)                  : 2 channels
Channel positions           : Front: L R
Sampling rate               : 48.0 kHz
Frame rate                  : 31.250 FPS (1536 SPF)
Bit depth                   : 16 bits
Compression mode            : Lossy
Delay relative to video     : -42 ms
Stream size                 : 136 MiB (4%)
Title                       : Dub [Megogo] 2.0 192 Kbps [Hurtom]
Language                    : Ukrainian
Service kind                : Complete Main
Default                     : Yes
Forced                      : Yes

Audio #2
ID                          : 3
Format                      : AC-3
Format/Info                 : Audio Coding 3
Format settings, Endianness : Big
Codec ID                    : A_AC3
Duration                    : 1 h 38 min
Bit rate mode               : Constant
Bit rate                    : 384 kb/s
Channel(s)                  : 6 channels
Channel positions           : Front: L C R, Side: L R, LFE
Sampling rate               : 48.0 kHz
Frame rate                  : 31.250 FPS (1536 SPF)
Bit depth                   : 16 bits
Compression mode            : Lossy
Delay relative to video     : -42 ms
Stream size                 : 272 MiB (7%)
Title                       : Original, 5.1 384 kbps
Language                    : English
Service kind                : Complete Main
Default                     : No
Forced                      : No

Text
ID                          : 4
Format                      : UTF-8
Codec ID                    : S_TEXT/UTF8
Codec ID/Info               : UTF-8 Plain Text
Duration                    : 1 h 31 min
Bit rate                    : 44 b/s
Count of elements           : 981
Stream size                 : 29.8 KiB (0%)
Title                       : Eng Full
Language                    : English
Default                     : No
Forced                      : No

Menu
00:00:00.000                : en:1
00:06:14.457                : en:2
00:11:51.669                : en:3
00:17:33.969                : en:4
00:23:36.039                : en:5
00:29:00.822                : en:6
00:33:37.890                : en:7
00:40:18.999                : en:8
00:45:21.426                : en:9
00:51:59.365                : en:10
00:58:27.961                : en:11
01:02:26.741                : en:12
01:11:45.841                : en:13
01:14:55.655                : en:14
01:22:18.848                : en:15
01:25:23.699                : en:16


Джерело: &
Подяка за українську доріжку п.dark_inwhite


 Трекер:    Зареєстрований   

Завантажити / скачати фільм українською



відео для новачків



 Зареєстрований:   2017-08-13 02:22
 Розмір:   3.54 GB 
 Оцінка фільму:   5.4/10 (Голосів: 24)
   
Інші релізи
   2:22 / 2:22 (2017) igor911  191 / 6   1.45 GB   2017-08-13 06:28 
   2:22 / 2:22 (2017) AVC Ukr/Eng | Sub Eng igor911  61 / 0   1.69 GB   2017-08-13 04:42 
TeronUA 
VIP


З нами з: 13.02.09
Востаннє: 19.08.17
Повідомлень: 283

2017-08-14 07:58  
Звучить цікаво.))) Треба подивитись)))
lunatiq 
Новенький


З нами з: 01.02.16
Востаннє: 19.08.17
Повідомлень: 3

2017-08-19 13:12  
початок 10/10
по мірі перегляду фільм впевнено сходить на 3/10

Ваш часовий пояс: GMT + 2 Години

Нова тема   Відповісти