Болота (Сезони 1-2) / The Glades (Seasons 1-2) (2010-2011) 720p Ukr/Eng | Sub Eng

Нові коментарі

Нова тема   Відповісти
Автор Повідомлення
Anonymous 







2017-08-12 19:15  
Болота (Сезони 1-2) / The Glades (Seasons 1-2) (2010-2011) 720p Ukr/Eng | Sub Eng

Болота (Сезони 1-2) / The Glades (Seasons 1-2) (2010-2011) 720p Ukr/Eng | Sub Eng


Жанр: детектив, драма
Країна: США



Кінокомпанія: Fox Television Studios, Grand Productions, Innuendo Productions / A&E
Режисер: Кліфтон Кемпбел (Clifton Campbell) та інші
Актори: Метт Пассмор (Matt Passmore), Кіле Санчез (Kiele Sanchez), Карлос Ґомез (Carlos Gómez) та інші

Сюжет:
Джим Лонгворт, детектив з відділу вбивств справляє незабутнє враження на жінок, розумний і красивий, але трішки важкий у спілкуванні. Йому довелося покинути Чикаго після неприємного випадку, коли капітан поліції, його начальник підстрелив його, запідозривши роман між ним і його дружиною. Покинувши Чикаго не з доброї волі, він осів у містечку Палм Глейдс, де життя схоже на тихе болото. На перший погляд, найстрашніше, що може статися в Палм Глейдс - черговий гравець у гольф отримає сонячний удар в полуденний час. Тільки це містечко на краю Національного парку Еверглейдс, нескінченної низки боліт, що кишать крокодилами, не в такій ідиліі, як здається. Вбивць там не менше, ніж у хмарних районах країни. І кожен випадок змушує Джима відкласти ключку для гольфу і застосувати весь свій талант у розкритті вбивств, яким, на додаток до поліцейського значка, його щедро нагородила доля. У коротких перервах між новими вбивствами, він примудряється вдосконалюватися в гольфі і зустрічатися з дотепною і симпатичною дівчиною Каллі...


Тривалість: 1 серія: ~41:30 (цілком серій: 26)
Перелік серій
Сезон 1
01. Pilot
02. Bird in the Hand
03. A Perfect Storm
04. Mucked Up
05. The Girlfriend Experience
06. Doppelganger
07. Cassadaga
08. Marriage Is Murder
09. Honey
10. Second Chance
11. Booty
12. Exposed
13. Breaking 80
Сезон 2
01. Family Matters
02. Old Ghosts
03. Lost and Found
04. Moonlighting
05. Dirty Little Secrets
06. Gibtown
07. Addicted To Love
08. Second Skin
09. Iron Pipeline
10. Swamp Thing
11. Beached
12. Shine
13. Breakout
Якість:
Відео:
кодек:
розмір кадру: 1280 х 720
бітрейт: ~4500 кб/с

Аудіо # 1:
мова: українська
переклад: багатоголосий закадровий
кодек: 2.0
бітрейт: 192 кб/с

Аудіо # 2:
мова: англійська
переклад: оригінал
кодек: 5.1
бітрейт: 384 кб/с

Джерело озвучення:


Субтитри:
мова: англійська
тип: програмні (м'які)
формат: *.srt
Info
General
Unique ID : 220144760945011766798654424101094096871 (0xA59E56B66142AD488C72DB2CEDA2FFE7)
Complete name : E:\Support\The Glades [, 720p, Ukr, Eng]\Season 1\The.Glades.S01E01..720p.Ukr.Eng.
Format :
Format version : Version 4 / Version 2
File size : 1.57 GiB
Duration : 46 min 29 s
Overall bit rate : 4 824 kb/s
Encoded date : UTC 2017-08-11 20:04:08
Writing application : mkvmerge v14.0.0 ('Flow') 64bit
Writing library : libebml v1.3.4 + libmatroska v1.4.5

Video
ID : 1
Format : AVC
Format/Info : Advanced Video Codec
Format profile : [email protected]
Format settings, CABAC : No
Format settings, ReFrames : 2 frames
Codec ID : V_MPEG4/ISO/AVC
Duration : 46 min 29 s
Bit rate : 4 246 kb/s
Width : 1 280 pixels
Height : 720 pixels
Display aspect ratio : 16:9
Frame rate mode : Constant
Frame rate : 25.000 FPS
Color space : YUV
Chroma subsampling : 4:2:0
Bit depth : 8 bits
Scan type : Progressive
Bits/(Pixel*Frame) : 0.184
Stream size : 1.38 GiB (88%)
Language : English
Default : Yes
Forced : Yes
Color range : Limited
Color primaries : BT.709
Transfer characteristics : BT.709
Matrix coefficients : BT.709

Audio #1
ID : 2
Format : AC-3
Format/Info : Audio Coding 3
Format settings, Endianness : Big
Codec ID : A_AC3
Duration : 46 min 29 s
Bit rate mode : Constant
Bit rate : 192 kb/s
Channel(s) : 2 channels
Channel positions : Front: L R
Sampling rate : 48.0 kHz
Frame rate : 31.250 FPS (1536 spf)
Bit depth : 16 bits
Compression mode : Lossy
Stream size : 63.8 MiB (4%)
Title : 1+1
Language : Ukrainian
Service kind : Complete Main
Default : Yes
Forced : No

Audio #2
ID : 3
Format : AC-3
Format/Info : Audio Coding 3
Format settings, Endianness : Big
Codec ID : A_AC3
Duration : 46 min 29 s
Bit rate mode : Constant
Bit rate : 384 kb/s
Channel(s) : 6 channels
Channel positions : Front: L C R, Side: L R, LFE
Sampling rate : 48.0 kHz
Frame rate : 31.250 FPS (1536 spf)
Bit depth : 16 bits
Compression mode : Lossy
Stream size : 128 MiB (8%)
Language : English
Service kind : Complete Main
Default : No
Forced : No

Text
ID : 4
Format : UTF-8
Codec ID : S_TEXT/UTF8
Codec ID/Info : UTF-8 Plain Text
Duration : 43 min 14 s
Bit rate : 96 b/s
Count of elements : 1007
Stream size : 30.7 KiB (0%)
Language : English
Default : No
Forced : No
Скріншоти

Запис з ТБ: BILko, Sando7, woxeloid
Синхронізація: BILko

Джерело:
Особиста оцінка: 0 - ще не дивився





Бронзовий реліз (на рейтинг впливає 75% завантаженого)
 Трекер:    Зареєстрований   

Завантажити / скачати серіал українською



відео для новачків



 Зареєстрований:   2017-08-12 19:15
 Розмір:   36.67 GB 
 Оцінка серіалу:   2.5/10 (Голосів: 12)
   
88mmc88 
Свій


З нами з: 21.12.09
Востаннє: 20.08.17
Повідомлень: 73

2017-08-13 20:55  
Дуже шкода що його закрили. Причому четвертий сезон найкращий.
Ваш часовий пояс: GMT + 2 Години

Нова тема   Відповісти