Пси 2. Остання кров / Psy 2. Ostatnia krew (1994) 720p Pol | sub Ukr

Нові коментарі

Нова тема   Відповісти
Автор Повідомлення
ivan vyrvyvuho 
VIP


З нами з: 19.08.12
Востаннє: 19.08.17
Повідомлень: 942

2017-08-12 14:07  
Пси 2. Остання кров / Psy 2. Ostatnia krew (1994) 720p Pol | sub Ukr



Жанр: кримінальний, бойовик, драма
Країна: Польща



Кінокомпанія: Agencja Produkcji Filmowej, Studio Filmowe Zebra, Syrena Entertainment Group
Режисер: Владислав Пасіковський / Władysław Pasikowski
Актори: Боґуслав Лінда / Bogusław Linda, Цезари Пазура / Cezary Pazura, Артур Жмієвський / Artur Żmijewski, Маґдалена Дандоуріан / Magdalena Dandourian, Валєрій Прійомихов / Valeri Priyomykhov, Сєргєй Шакуров / Sergey Shakurov, Александр Беднаж / Aleksander Bednarz, Едвард Лінде-Любашенко / Edward Linde-Lubaszenko та інші.

Сюжет:
Франц виходить на волю й невдовзі зустрічається з давнім знайомим Вольфом, який намовляє його зайнятися експортом зброї. Той бере в помічники й Нового, який постає перед дилемою: чи залишатися копом, чи бути замішаним у міжнародну торгівлю зброєю.


Тривалість: 01:38:59
Якість:
Відео:
кодек:
розмір кадру: 1280 х 532
бітрейт: 3061 кб/с

Аудіо:
мова: польська
переклад: оригінал
кодек: 5.1
бітрейт: 448 кб/с

Субтитри:
мова: українська
тип: програмні (м'які)
формат: *.srt
переклад: з польської володимирко2
редагування: ivan vyrvyvuho
Скріншоти





МедіаІнфо
General
Unique ID : 203747944055937104609477630570254651532 (0x99486D395BB211749A32D2BEE0C9508C)
Complete name : D:\тор\Psy 2. Ostatnia krew 720p [Pol,SubUkr].
Format :
Format version : Version 2
File size : 2.48 GiB
Duration : 1 h 38 min
Overall bit rate : 3 581 kb/s
Movie name : Psy.2.Ostatnia.krew..720p-rutracker.xfiles
Encoded date : UTC 2017-08-13 17:41:03
Writing application : mkvmerge v5.6.0 ('Kenya Kane') built on May 27 2012 16:44:04
Writing library : libebml v1.2.3 + libmatroska v1.3.0

Video
ID : 1
Format : AVC
Format/Info : Advanced Video Codec
Format profile : [email protected]
Format settings, CABAC : Yes
Format settings, ReFrames : 10 frames
Codec ID : V_MPEG4/ISO/AVC
Duration : 1 h 38 min
Bit rate : 3 062 kb/s
Width : 1 280 pixels
Height : 532 pixels
Display aspect ratio : 2.40:1
Frame rate mode : Constant
Frame rate : 25.000 FPS
Color space : YUV
Chroma subsampling : 4:2:0
Bit depth : 8 bits
Scan type : Progressive
Bits/(Pixel*Frame) : 0.180
Stream size : 2.12 GiB (86%)
Title : Psy.2.Ostatnia.krew..720p-rutracker.xfiles
Writing library : core 148 r2579kMod 73ae2d1
Encoding settings : cabac=1 / ref=10 / deblock=1:-3:-3 / analyse=0x3:0x133 / me=umh / subme=11 / psy=1 / fade_compensate=0.00 / psy_rd=1.00:0.10 / mixed_ref=1 / me_range=36 / chroma_me=1 / trellis=2 / 8x8dct=1 / cqm=0 / deadzone=21,11 / fast_pskip=0 / chroma_qp_offset=-3 / threads=12 / lookahead_threads=3 / sliced_threads=0 / nr=0 / decimate=1 / interlaced=0 / bluray_compat=0 / constrained_intra=0 / fgo=0 / bframes=10 / b_pyramid=2 / b_adapt=2 / b_bias=0 / direct=3 / weightb=1 / open_gop=0 / weightp=2 / keyint=250 / keyint_min=25 / scenecut=40 / intra_refresh=0 / rc_lookahead=70 / rc=crf / mbtree=0 / crf=18.0000 / qcomp=0.60 / qpmin=0 / qpmax=69 / qpstep=4 / vbv_maxrate=50000 / vbv_bufsize=62500 / crf_max=0.0 / nal_hrd=none / filler=0 / ip_ratio=1.40 / pb_ratio=1.30 / aq=1:0.80
Language : Polish
Default : Yes
Forced : No
Color range : Limited
Color primaries : BT.709
Transfer characteristics : BT.709
Matrix coefficients : BT.709

Audio
ID : 2
Format : AC-3
Format/Info : Audio Coding 3
Mode extension : CM (complete main)
Format settings, Endianness : Big
Codec ID : A_AC3
Duration : 1 h 38 min
Bit rate mode : Constant
Bit rate : 448 kb/s
Channel(s) : 6 channels
Channel positions : Front: L C R, Side: L R, LFE
Sampling rate : 48.0 kHz
Frame rate : 31.250 FPS (1536 spf)
Bit depth : 16 bits
Compression mode : Lossy
Stream size : 317 MiB (13%)
Title : 5.1 DVD
Language : Polish
Default : No
Forced : No

Text
ID : 3
Format : UTF-8
Codec ID : S_TEXT/UTF8
Codec ID/Info : UTF-8 Plain Text
Title : Ukr
Default : Yes
Forced : No

Джерело: Rutracker
Особиста оцінка: 8 - мені сподобалося


Золотий реліз (завантажене не впливає на рейтинг)
 Трекер:    Зареєстрований   

Завантажити / скачати фільм українською



відео для новачків



 Зареєстрований:   2017-08-13 20:53
 Розмір:   2.48 GB 
 Оцінка фільму:   5.5/10 (Голосів: 2)
   
ivan vyrvyvuho 
VIP


З нами з: 19.08.12
Востаннє: 19.08.17
Повідомлень: 942

2017-08-12 22:18  
А про паровоза... в Польщі регулярне сполучення на залізній дорозі з паровим локомотивом було до квітня 2014 року - Вольштин - Лєшно. Отакої...
Щодо Хорватії й війни на Балканах, то поляки вже тоді чудово розуміли хто за цим стоїть і кому вигідно було утворювати псевдонезалежні республіки.

ivan vyrvyvuho 
VIP


З нами з: 19.08.12
Востаннє: 19.08.17
Повідомлень: 942

2017-08-13 20:58  
Усунуто функцію Header stripping, прохання оновити торрент-файл.
Ваш часовий пояс: GMT + 2 Години

Нова тема   Відповісти