Експеримент «Офіс» / The Belko Experiment (2016) Ukr/Eng

Нові коментарі

Нова тема   Відповісти
Автор Повідомлення
sergiyko.5 
VIP


З нами з: 25.02.16
Востаннє: 19.08.17
Повідомлень: 993

2017-08-12 09:23  
Експеримент «Офіс» / The Belko Experiment (2016) Ukr/Eng

Експеримент «Офіс» / The Belko Experiment (2016) Ukr/Eng

Жанр: трилер, бойовик, жахи
Країна: США, Колумбія
Кінокомпанія: BH Tilt, Blumhouse Productions, Itaca Films
Режисер: Грег МакЛін
Актори: Джон Ґаллагер мл., Тоні Ґолдвін, Адріа Архона, Джон К. МакГінлі, Мелоні Діаз, Овайн Йомен, Майкл Рукер, Джош Бренер, Давід Дастмалчян, Джеймс Ерл

Сюжет:
"Белко" – міжнародна корпорація, офіс якої знаходиться на околиці міста Богота, Колумбія. 80 співробітників щодня приходять у сучасні офіси в багатоповерхівці. Але одного разу голос по внутрішньому зв'язку компанії повідомляє, що всі вони стають учасниками гри на виживання. Якщо не вб'ють 3 людей, то він уб'є 6... Якщо не помруть 30, то загинуть 60. Тепер кожен із співробітників знаходиться в заблокованому приміщенні і повинен виконувати найвитонченіші завдання. Зараз будь-яка людина перебуває в неймовірній небезпеці. Тут ніхто не хоче жартувати. Соціальний експеримент почався.




Тривалість:
01:28:45
Якість:

Відео: кодек: розмір кадру: 720 х 304 бітрейт: 1919 кб/с
Аудіо # 1: мова: українська переклад: багатоголосий закадровий кодек: 2.0 бітрейт: 192 кб/с
Аудіо # 2: мова: англійська переклад: оригінал кодек: 5.1 бітрейт: 448 кб/с
Про файл:
General
Complete name : D:\Torrents\FILMS\The.Belko.Experiment.2016..Ukr.Eng.avi
Format : AVI
Format/Info : Audio Video Interleave
File size : 1.59 GiB
Duration : 1 h 28 min
Overall bit rate : 2 570 kb/s

Video
ID : 0
Format : MPEG-4 Visual
Format profile : Advanced [email protected]
Format settings, BVOP : 2
Format settings, QPel : No
Format settings, GMC : No warppoints
Format settings, Matrix : Default (H.263)
Muxing mode : Packed bitstream
Codec ID :
Codec ID/Hint :
Duration : 1 h 28 min
Bit rate : 1 919 kb/s
Width : 720 pixels
Height : 304 pixels
Display aspect ratio : 2.35:1
Frame rate : 23.976 (24000/1001) FPS
Color space : YUV
Chroma subsampling : 4:2:0
Bit depth : 8 bits
Scan type : Progressive
Compression mode : Lossy
Bits/(Pixel*Frame) : 0.366
Stream size : 1.19 GiB (75%)
Writing library : 73

Audio #1
ID : 1
Format : AC-3
Format/Info : Audio Coding 3
Format settings, Endianness : Big
Codec ID : 2000
Duration : 1 h 28 min
Bit rate mode : Constant
Bit rate : 192 kb/s
Channel(s) : 2 channels
Channel positions : Front: L R
Sampling rate : 48.0 kHz
Frame rate : 31.250 FPS (1536 SPF)
Bit depth : 16 bits
Compression mode : Lossy
Stream size : 122 MiB (7%)
Alignment : Aligned on interleaves
Interleave, duration : 64 ms (1.53 video frames)
Interleave, preload duratio : 192 ms
Title : MOV
Service kind : Complete Main

Audio #2
ID : 2
Format : AC-3
Format/Info : Audio Coding 3
Format settings, Endianness : Big
Codec ID : 2000
Duration : 1 h 28 min
Bit rate mode : Constant
Bit rate : 448 kb/s
Channel(s) : 6 channels
Channel positions : Front: L C R, Side: L R, LFE
Sampling rate : 48.0 kHz
Frame rate : 31.250 FPS (1536 SPF)
Bit depth : 16 bits
Compression mode : Lossy
Stream size : 284 MiB (17%)
Alignment : Aligned on interleaves
Interleave, duration : 64 ms (1.53 video frames)
Interleave, preload duratio : 192 ms
Title :
Service kind : Complete Main
Скріншоти:


Подяка за український звук користувачу dark_inwhite


 Трекер:    Зареєстрований   

Завантажити / скачати фільм українською



відео для новачків



 Зареєстрований:   2017-08-12 10:34
 Розмір:   1.59 GB 
 Оцінка фільму:   9.1/10 (Голосів: 32)
   
bookgrabber 
Новенький


З нами з: 08.01.10
Востаннє: 17.08.17
Повідомлень: 1

2017-08-12 21:14  
як фільм?
Sem1309 
Свій


З нами з: 05.07.09
Востаннє: 19.08.17
Повідомлень: 63

2017-08-13 01:29  
Класний фільм для любителів жанру. 10/10.
Іріс 
Частий відвідувач


З нами з: 20.09.12
Востаннє: 18.08.17
Повідомлень: 28

2017-08-13 17:21  
Фільм розчарував. Звісно для тих, хто не дивився такі стрічки, як "Куб", "Пила" чи "Диявол" він може здатися цікавим, але мене не вразив, якась дурна біганини. Лише за непогану гру акторів ставлю 5/10. Натомість раджу переглянути фільми, які я вказала у другому реченні)
lozinska 
Свій


З нами з: 20.04.08
Востаннє: 17.08.17
Повідомлень: 58

2017-08-13 18:46  
Ідея не нова, але було цікаво.
NCIS_1 
Новенький


З нами з: 28.06.16
Востаннє: 15.08.17
Повідомлень: 3

2017-08-13 23:34  
В чому сенс фільму ? Бридота якась....

Дивився багато фільмів данного жанру, там хоч була якась логіка, а тут щось зовсім безглузде Happy Яка суть експерименту ?

Кривава баня вийшла у авторів Sad (1)

0leK 
Новенький


З нами з: 14.05.15
Востаннє: 18.08.17
Повідомлень: 1

2017-08-15 20:14  
Ходив на цей фільм у кіно на останній сеанс. Трішки прересмикнуло мене, коли вийшовши із залу не побачив жодного працівника кінотеатру і закриті ролети (як і всі інші виходи) Happy

Враження - 8/10. Тупенька кінцівка як на мене

AlvadorUA 
Новенький


З нами з: 15.08.17
Востаннє: 18.08.17
Повідомлень: 1

2017-08-15 21:49  
Дубляж не планується?
sergiyko.5 
VIP


З нами з: 25.02.16
Востаннє: 19.08.17
Повідомлень: 993

2017-08-15 23:54  
AlvadorUA написано:
Дубляж не планується?

від мене ні.

White_123 
Частий відвідувач


З нами з: 15.02.13
Востаннє: 19.08.17
Повідомлень: 34

2017-08-18 21:47  
Іріс
..."Куб", "Пила"...


Люблю трилогію "Куб" та сподобалась перга "Пила", але порівняння не зовсім доречні, тому що в цих двох фільмах люди мають проходити випробування, під час яких їх мочать, а в "Експерименті Белко" люди мочать один одного.
Якщо брати до порівняння - найкраще підійде «Королівська битва» (2000р., Японія) - доволі атмосферний фільм, в якому учні одного класу приймають участь у грі, сенс якоі "виживе лише один". Так от "Королівська битва" значно краще "Експерименту Белко". В Експерименті Белко основний упор пішов на жорстокість та кривавість, що відвертає від фільму, а взаємовідносин, розкриття особистостей майже й немає, тупе місиво, хоча в цілому подивитись можна. На 7 з 10 для любителів кривавого м'яса.

Гуцул 
Свій


З нами з: 21.04.09
Востаннє: 19.08.17
Повідомлень: 54

2017-08-19 00:52  
Ідея спочатку зацікавила...та все ближче до кінця повна фігня...
а героїня яка переживала за свої туфлі то взагалі порвало.
Реально ТУФТА!!!
А так надіявся на гарний фільм!

Ваш часовий пояс: GMT + 2 Години

Нова тема   Відповісти