Експеримент «Офіс» / The Belko Experiment (2016) 720p Ukr/Eng | sub Eng

Нові коментарі

Нова тема   Відповісти
Автор Повідомлення
sergiyko.5 
Попереджень: 1
Попереджень: 1 


З нами з: 25.02.16
Востаннє: 17.12.17
Повідомлень: 1250

2017-08-12 08:17  
Експеримент «Офіс» / The Belko Experiment (2016) 720p Ukr/Eng | sub Eng

Експеримент «Офіс» / The Belko Experiment (2016) 720p Ukr/Eng | sub Eng

Жанр: трилер, бойовик, жахи
Країна: США, Колумбія
Кінокомпанія: BH Tilt, Blumhouse Productions, Itaca Films
Режисер: Грег МакЛін
Актори: Джон Ґаллагер мл., Тоні Ґолдвін, Адріа Архона, Джон К. МакГінлі, Мелоні Діаз, Овайн Йомен, Майкл Рукер, Джош Бренер, Давід Дастмалчян, Джеймс Ерл

Сюжет:
"Белко" – міжнародна корпорація, офіс якої знаходиться на околиці міста Богота, Колумбія. 80 співробітників щодня приходять у сучасні офіси в багатоповерхівці. Але одного разу голос по внутрішньому зв'язку компанії повідомляє, що всі вони стають учасниками гри на виживання. Якщо не вб'ють 3 людей, то він уб'є 6... Якщо не помруть 30, то загинуть 60. Тепер кожен із співробітників знаходиться в заблокованому приміщенні і повинен виконувати найвитонченіші завдання. Зараз будь-яка людина перебуває в неймовірній небезпеці. Тут ніхто не хоче жартувати. Соціальний експеримент почався.




Тривалість:
01:28:45
Якість:

Відео: кодек: розмір кадру: 1280 х 536 бітрейт: 5500 кб/с
Аудіо # 1: мова: українська переклад: багатоголосий закадровий кодек: 2.0 бітрейт: 192 кб/с
Аудіо # 2: мова: англійська переклад: оригінал кодек: 5.1 бітрейт: 640 кб/с
Субтитри: мова: англійська тип: програмні (м'які) формат: *.srt
Про файл:
General
Unique ID : 228725889591436765839676582220055630211 (0xAC130104F824D740A6128461B09ED183)
Complete name : D:\Torrents\FILMS\The.Belko.Experiment.2016.720p..Ukr.Eng.
Format :
Format version : Version 4 / Version 2
File size : 3.95 GiB
Duration : 1 h 28 min
Overall bit rate : 6 375 kb/s
Movie name : The Belko Experiment 2016 720p by sergiyko
Encoded date : UTC 2017-08-12 07:20:21
Writing application : mkvmerge v14.0.0 ('Flow') 64bit
Writing library : libebml v1.3.4 + libmatroska v1.4.5
Cover : Yes
Attachments : cover.jpg

Video
ID : 1
Format : AVC
Format/Info : Advanced Video Codec
Format profile : [email protected]
Format settings, CABAC : Yes
Format settings, RefFrames : 5 frames
Codec ID : V_MPEG4/ISO/AVC
Duration : 1 h 28 min
Bit rate : 5 538 kb/s
Width : 1 280 pixels
Height : 536 pixels
Display aspect ratio : 2.40:1
Frame rate mode : Constant
Frame rate : 23.976 (24000/1001) FPS
Color space : YUV
Chroma subsampling : 4:2:0
Bit depth : 8 bits
Scan type : Progressive
Bits/(Pixel*Frame) : 0.337
Stream size : 3.43 GiB (87%)
Title : The Belko Experiment 2016 720p
Writing library : core 150 r2833 df79067
Encoding settings : cabac=1 / ref=5 / deblock=1:0:0 / analyse=0x3:0x113 / me=umh / subme=8 / psy=1 / psy_rd=1.00:0.00 / mixed_ref=1 / me_range=16 / chroma_me=1 / trellis=1 / 8x8dct=1 / cqm=0 / deadzone=21,11 / fast_pskip=1 / chroma_qp_offset=-2 / threads=24 / lookahead_threads=4 / sliced_threads=0 / nr=0 / decimate=1 / interlaced=0 / bluray_compat=0 / constrained_intra=0 / bframes=3 / b_pyramid=2 / b_adapt=1 / b_bias=0 / direct=3 / weightb=1 / open_gop=0 / weightp=2 / keyint=240 / keyint_min=24 / scenecut=40 / intra_refresh=0 / rc_lookahead=50 / rc=2pass / mbtree=1 / bitrate=5538 / ratetol=1.0 / qcomp=0.60 / qpmin=0 / qpmax=69 / qpstep=4 / cplxblur=20.0 / qblur=0.5 / ip_ratio=1.40 / aq=1:1.00
Language : English
Default : Yes
Forced : No

Audio #1
ID : 2
Format : AC-3
Format/Info : Audio Coding 3
Format settings, Endianness : Big
Codec ID : A_AC3
Duration : 1 h 28 min
Bit rate mode : Constant
Bit rate : 192 kb/s
Channel(s) : 2 channels
Channel positions : Front: L R
Sampling rate : 48.0 kHz
Frame rate : 31.250 FPS (1536 SPF)
Bit depth : 16 bits
Compression mode : Lossy
Stream size : 122 MiB (3%)
Title : MOV
Language : Ukrainian
Service kind : Complete Main
Default : Yes
Forced : Yes

Audio #2
ID : 3
Format : AC-3
Format/Info : Audio Coding 3
Format settings, Endianness : Big
Codec ID : A_AC3
Duration : 1 h 28 min
Bit rate mode : Constant
Bit rate : 640 kb/s
Channel(s) : 6 channels
Channel positions : Front: L C R, Side: L R, LFE
Sampling rate : 48.0 kHz
Frame rate : 31.250 FPS (1536 SPF)
Bit depth : 16 bits
Compression mode : Lossy
Stream size : 406 MiB (10%)
Title : Original
Language : English
Service kind : Complete Main
Default : No
Forced : No

Text #1
ID : 4
Format : UTF-8
Codec ID : S_TEXT/UTF8
Codec ID/Info : UTF-8 Plain Text
Duration : 1 h 23 min
Bit rate : 51 b/s
Count of elements : 1124
Stream size : 31.4 KiB (0%)
Title : English regular
Language : English
Default : No
Forced : No

Text #2
ID : 5
Format : UTF-8
Codec ID : S_TEXT/UTF8
Codec ID/Info : UTF-8 Plain Text
Duration : 1 h 23 min
Bit rate : 58 b/s
Count of elements : 1341
Stream size : 36.0 KiB (0%)
Title : English sdh
Language : English
Default : No
Forced : No

Menu
00:00:00.000 : en:00:00:00.000
00:02:39.993 : en:00:02:39.993
00:05:18.944 : en:00:05:18.944
00:09:21.019 : en:00:09:21.019
00:11:17.886 : en:00:11:17.886
00:14:06.095 : en:00:14:06.095
00:16:29.906 : en:00:16:29.906
00:19:13.736 : en:00:19:13.736
00:22:43.529 : en:00:22:43.529
00:24:48.320 : en:00:24:48.320
00:28:11.565 : en:00:28:11.565
00:30:31.997 : en:00:30:31.997
00:33:47.442 : en:00:33:47.442
00:37:12.313 : en:00:37:12.313
00:41:57.056 : en:00:41:57.056
00:44:22.118 : en:00:44:22.118
00:47:42.026 : en:00:47:42.026
00:50:24.230 : en:00:50:24.230
00:53:04.723 : en:00:53:04.723
00:56:46.445 : en:00:56:46.445
01:00:59.239 : en:01:00:59.239
01:03:07.075 : en:01:03:07.075
01:04:40.794 : en:01:04:40.794
01:08:04.664 : en:01:08:04.664
01:10:40.945 : en:01:10:40.945
01:15:19.557 : en:01:15:19.557
01:19:18.420 : en:01:19:18.420
01:24:33.652 : en:01:24:33.652

Скріншоти:



Подяка за український звук користувачу dark_inwhite


 Трекер:    Зареєстрований   

Завантажити / скачати фільм українською



відео для новачків



 Зареєстрований:   2017-08-12 09:28
 Розмір:   3.95 GB 
 Оцінка фільму:   8/10 (Голосів: 22)
   
Інші релізи
Estranded 
VIP


З нами з: 09.02.14
Востаннє: 17.12.17
Повідомлень: 1012

2017-08-31 08:39  
Неоднозначне кіно... В принципі, було цікаво дивитися як люди мочать один одного. Цікавий видався експериментHappy
6/10 - для любителів різанини і хардкору.

majsterax 
Новенький


З нами з: 27.08.11
Востаннє: 18.11.17
Повідомлень: 2

2017-11-07 14:16  
1 - я б ніколи собі не дав вживити щось у голову.
2 - фільм тупий, і навіює людям лише одну установку - БЕЗПОМОЧНІСТЬ... Вживлює це на підсвідомості. Тому коли прийдуть "мочити" - треба лише підкорятись. Як і купа фільмів з США - типу "пили", "крик", "поворот не туди" - попався б мені в руки той Крик чи з Повороту не туди бичара - замочив би за пару сек і фільму кінець Wink (1)

Ваш часовий пояс: GMT + 2 Години

Нова тема   Відповісти