Експеримент «Офіс» / The Belko Experiment (2016) 1080p Ukr/Eng | sub Eng

Нові коментарі

Нова тема   Відповісти
Автор Повідомлення
dark_inwhite 
Частий відвідувач


З нами з: 15.09.16
Востаннє: 16.12.17
Повідомлень: 43

2017-08-11 23:29  
Експеримент «Офіс» / The Belko Experiment (2016) 1080p Ukr/Eng | sub Eng

Експеримент «Офіс» / The Belko Experiment (2016) 1080p Ukr/Eng | sub Eng


Жанр: трилер, бойовик, жахи
Країна: США, Колумбія



Кінокомпанія: BH Tilt, Blumhouse Productions, Itaca Films
Режисер: Грег МакЛін
Актори: Джон Ґаллагер мл., Тоні Ґолдвін, Адріа Архона, Джон К. МакГінлі, Мелоні Діаз, Овайн Йомен, Майкл Рукер, Джош Бренер, Давід Дастмалчян, Джеймс Ерл

Сюжет:
"Белко" – міжнародна корпорація, офіс якої знаходиться на околиці міста Боґота, Колумбія. 80 співробітників щодня приходять у сучасні офіси в багатоповерхівці. Але одного разу голос по внутрішньому зв'язку компанії повідомляє, що всі вони стають учасниками гри на виживання. Якщо не вб'ють 3 людей, то він уб'є 6... Якщо не помруть 30, то загинуть 60. Тепер кожен із співробітників знаходиться в заблокованому приміщенні і повинен виконувати найвитонченіші завдання. Зараз будь-яка людина перебуває в неймовірній небезпеці. Тут ніхто не хоче жартувати. Соціальний експеримент почався.


Тривалість: 01:28:45
Якість: 1080p
Відео:
кодек:
розмір кадру: 1920 х 800
бітрейт: 14 000 кб/с

Аудіо # 1:
мова: українська
переклад: багатоголосий закадровий
кодек: 2.0
бітрейт: 192 кб/с

Аудіо # 2:
мова: англійська
переклад: оригінал
кодек: 5.1
бітрейт: 1 509 кб/с

Субтитри:
мова: англійська
тип: програмні (м'які)
формат: *.srt
Info
Complete name : D:\Torrents\FILMS\The.Belko.Experiment.2016.1080p..Ukr.Eng.
Format :
Format version : Version 4 / Version 2
File size : 9.73 GiB
Duration : 1 h 28 min
Overall bit rate : 15.7 Mb/s
Movie name : The Belko Experiment 2016 720p by sergiyko
Encoded date : UTC 2017-08-12 08:00:52
Writing application : mkvmerge v14.0.0 ('Flow') 64bit
Writing library : libebml v1.3.4 + libmatroska v1.4.5
Cover : Yes
Attachments : cover.jpg

Video
ID : 1
Format : AVC
Format/Info : Advanced Video Codec
Format profile : [email protected]
Format settings, CABAC : Yes
Format settings, RefFrames : 5 frames
Codec ID : V_MPEG4/ISO/AVC
Duration : 1 h 28 min
Bit rate : 14.0 Mb/s
Width : 1 920 pixels
Height : 800 pixels
Display aspect ratio : 2.40:1
Frame rate mode : Constant
Frame rate : 23.976 (24000/1001) FPS
Color space : YUV
Chroma subsampling : 4:2:0
Bit depth : 8 bits
Scan type : Progressive
Bits/(Pixel*Frame) : 0.380
Stream size : 8.68 GiB (89%)
Title : The Belko Experiment 2016 1080p
Writing library : core 124 r2197+666+28 3970b70 tMod+MixAQ [[email protected]:2:0 X86]
Encoding settings : cabac=1 / ref=5 / deblock=1:-3:-3 / analyse=0x3:0x133 / me=umh / subme=11 / psy=1 / fade_compensate=0.00 / psy_rd=1.05:0.10 / mixed_ref=1 / me_range=64 / chroma_me=1 / trellis=2 / 8x8dct=1 / cqm=0 / deadzone=21,11 / fast_pskip=0 / chroma_qp_offset=-3 / threads=12 / sliced_threads=0 / nr=0 / decimate=1 / interlaced=0 / bluray_compat=0 / constrained_intra=0 / fgo=0 / bframes=8 / b_pyramid=2 / b_adapt=2 / b_bias=0 / direct=3 / weightb=1 / open_gop=0 / weightp=2 / keyint=250 / keyint_min=23 / scenecut=40 / intra_refresh=0 / rc=2pass / mbtree=0 / bitrate=14000 / ratetol=1.0 / qcomp=0.75 / qpmin=0 / qpmax=69 / qpstep=4 / cplxblur=20.0 / qblur=0.5 / ip_ratio=1.40 / pb_ratio=1.30 / aq=1 / aq-strength=0.80 / aq-sensitivity=10.00 / aq-ifactor=1.00 / aq-pfactor=1.00 / aq-bfactor=1.00 / aq2=0
Language : English
Default : Yes
Forced : No

Audio #1
ID : 2
Format : AC-3
Format/Info : Audio Coding 3
Format settings, Endianness : Big
Codec ID : A_AC3
Duration : 1 h 28 min
Bit rate mode : Constant
Bit rate : 192 kb/s
Channel(s) : 2 channels
Channel positions : Front: L R
Sampling rate : 48.0 kHz
Frame rate : 31.250 FPS (1536 SPF)
Bit depth : 16 bits
Compression mode : Lossy
Stream size : 122 MiB (1%)
Title : MOV
Language : Ukrainian
Service kind : Complete Main
Default : Yes
Forced : Yes

Audio #2
ID : 3
Format :
Format/Info : Digital Theater Systems
Mode : 16
Format settings, Endianness : Big
Codec ID : A_DTS
Duration : 1 h 28 min
Bit rate mode : Constant
Bit rate : 1 509 kb/s
Channel(s) : 6 channels
Channel positions : Front: L C R, Side: L R, LFE
Sampling rate : 48.0 kHz
Frame rate : 93.750 FPS (512 SPF)
Bit depth : 24 bits
Compression mode : Lossy
Stream size : 958 MiB (10%)
Title : Original
Language : English
Default : No
Forced : No

Text #1
ID : 4
Format : UTF-8
Codec ID : S_TEXT/UTF8
Codec ID/Info : UTF-8 Plain Text
Duration : 1 h 23 min
Bit rate : 51 b/s
Count of elements : 1124
Stream size : 31.4 KiB (0%)
Title : English regular
Language : English
Default : No
Forced : No

Text #2
ID : 5
Format : UTF-8
Codec ID : S_TEXT/UTF8
Codec ID/Info : UTF-8 Plain Text
Duration : 1 h 23 min
Bit rate : 58 b/s
Count of elements : 1341
Stream size : 36.0 KiB (0%)
Title : English sdh
Language : English
Default : No
Forced : No

Menu
00:00:00.000 : en:00:00:00.000
00:02:39.993 : en:00:02:39.993
00:05:18.944 : en:00:05:18.944
00:09:21.019 : en:00:09:21.019
00:11:17.886 : en:00:11:17.886
00:14:06.095 : en:00:14:06.095
00:16:29.906 : en:00:16:29.906
00:19:13.736 : en:00:19:13.736
00:22:43.529 : en:00:22:43.529
00:24:48.320 : en:00:24:48.320
00:28:11.565 : en:00:28:11.565
00:30:31.997 : en:00:30:31.997
00:33:47.442 : en:00:33:47.442
00:37:12.313 : en:00:37:12.313
00:41:57.056 : en:00:41:57.056
00:44:22.118 : en:00:44:22.118
00:47:42.026 : en:00:47:42.026
00:50:24.230 : en:00:50:24.230
00:53:04.723 : en:00:53:04.723
00:56:46.445 : en:00:56:46.445
01:00:59.239 : en:01:00:59.239
01:03:07.075 : en:01:03:07.075
01:04:40.794 : en:01:04:40.794
01:08:04.664 : en:01:08:04.664
01:10:40.945 : en:01:10:40.945
01:15:19.557 : en:01:15:19.557
01:19:18.420 : en:01:19:18.420
01:24:33.652 : en:01:24:33.652
Скріншоти




Особиста оцінка: 0 - не дивився


 Трекер:    Зареєстрований   

Завантажити / скачати фільм українською



відео для новачків



 Зареєстрований:   2017-08-12 11:57
 Розмір:   9.73 GB 
 Оцінка фільму:   7.7/10 (Голосів: 15)
   
Інші релізи
mrsdoubtfire 
Поважний учасник


З нами з: 22.10.15
Востаннє: 15.12.17
Повідомлень: 164

2017-08-12 02:37  
Офіційний трейлер:
https://www.youtube.com/watch?v=we26SCYYwj0

AngelOFF9292 
Новенький


З нами з: 03.09.14
Востаннє: 16.12.17
Повідомлень: 5

2017-08-12 08:41  
Хтось дивився? Варто витраченного часу?
igor911 
Відео Гуртом
Відео Гуртом


З нами з: 18.01.08
Востаннє: 16.12.17
Повідомлень: 8515

2017-08-12 08:52  
Додаток до релізів в якості HD написано:
6. Оригінальна доріжка обов'язкова у всіх релізах HD, крім 720p-mini та багатосерійних.

треба додати оригінальну доріжку.

erqwert 
Частий відвідувач


З нами з: 22.08.09
Востаннє: 16.12.17
Повідомлень: 35

2017-08-12 17:32  
AngelOFF9292
в кінотеатрі дивився. сподобалось.

-VJ- 
VIP


З нами з: 01.11.09
Востаннє: 15.12.17
Повідомлень: 630

2017-08-13 11:01  
AngelOFF9292 написано:
Хтось дивився? Варто витраченного часу?


Бадьорий кривавий бойовичок "на виживання". На любителів жанру.

_sergius 
Свій


З нами з: 26.03.11
Востаннє: 15.12.17
Повідомлень: 73

2017-08-29 17:12  
Посередньо. Очікував трохи більшого.
Ваш часовий пояс: GMT + 2 Години

Нова тема   Відповісти