Конвоїри / Chasers (1994) AVC Ukr/Eng | sub Eng

Нові коментарі

Нова тема   Відповісти
Автор Повідомлення
sergiyko.5 
VIP


З нами з: 25.02.16
Востаннє: 17.08.17
Повідомлень: 986

2017-08-12 00:17  
Конвоїри / Chasers (1994) AVC Ukr/Eng | sub Eng

Конвоїри / Chasers (1994) AVC Ukr/Eng | sub Eng

Жанр: комедія, пригоди
Країна: США
Кінокомпанія: Morgan Creek Productions
Режисер: Денніс Хоппер
Актори: Том Беренджер, Еріка Еленіак, Вільям Макнамара, Кріспін Гловер, Метью Глейв, Гранд Л.Буш, Дін Стоквел, Бітті Шрам, Гері Бюзі, Сеймур Кассел.

Сюжет:
Двом морським піхотинцям наказано доставити ув'язненого з однієї в'язниці в іншу. Але ніхто їх не попередив, що цей в'язень - жінка. Тут і починаються пригоди: Едді закохується в ув'язнену, вона щораз намагається втекти від них, а Рок - зобов'язаний весь час все це розгрібати...




Тривалість:
01:41:21
Якість:

Відео: кодек: розмір кадру: 1024x576 бітрейт: 3000 кб/с
Аудіо # 1: мова: українська переклад: двоголосий закадровий кодек: 5.1 бітрейт: 384 кб/с
Аудіо # 2: мова: англійська переклад: оригінал кодек: 5.1 бітрейт: 384 кб/с
Джерело озвучення: | Євген Пашин і Людмила Ардельян
Субтитри: мова: англійська тип: програмні (м'які) формат: *.srt
Про файл:
General
Unique ID : 199637520314945294063933976867561629478 (0x9630C9AFDE1BF46B9F6BE37EF9CD6726)
Complete name : D:\Torrents\FILMS\Chasers.1994..Ukr.Eng.
Format :
Format version : Version 4 / Version 2
File size : 2.63 GiB
Duration : 1 h 41 min
Overall bit rate : 3 721 kb/s
Movie name : Chasers 1994
Encoded date : UTC 2017-08-11 20:59:26
Writing application : mkvmerge v14.0.0 ('Flow') 64bit
Writing library : libebml v1.3.4 + libmatroska v1.4.5
Cover : Yes
Attachments : cover.jpg

Video
ID : 1
Format : AVC
Format/Info : Advanced Video Codec
Format profile : High@L4.1
Format settings, CABAC : Yes
Format settings, RefFrames : 10 frames
Codec ID : V_MPEG4/ISO/AVC
Duration : 1 h 41 min
Bit rate : 2 950 kb/s
Width : 1 024 pixels
Height : 576 pixels
Display aspect ratio : 16:9
Frame rate mode : Constant
Frame rate : 23.976 (24000/1001) FPS
Color space : YUV
Chroma subsampling : 4:2:0
Bit depth : 8 bits
Scan type : Progressive
Bits/(Pixel*Frame) : 0.209
Stream size : 2.09 GiB (79%)
Title : Chasers 1994
Writing library : core 146 r2538 121396c
Encoding settings : cabac=1 / ref=10 / deblock=1:-3:-3 / analyse=0x3:0x133 / me=umh / subme=10 / psy=1 / psy_rd=1.00:0.15 / mixed_ref=1 / me_range=32 / chroma_me=1 / trellis=2 / 8x8dct=1 / cqm=0 / deadzone=21,11 / fast_pskip=0 / chroma_qp_offset=-3 / threads=12 / lookahead_threads=2 / sliced_threads=0 / nr=0 / decimate=0 / interlaced=0 / bluray_compat=0 / constrained_intra=0 / bframes=8 / b_pyramid=2 / b_adapt=2 / b_bias=0 / direct=3 / weightb=1 / open_gop=0 / weightp=2 / keyint=240 / keyint_min=23 / scenecut=40 / intra_refresh=0 / rc_lookahead=40 / rc=2pass / mbtree=0 / bitrate=2950 / ratetol=1.0 / qcomp=0.60 / qpmin=0 / qpmax=69 / qpstep=4 / cplxblur=20.0 / qblur=0.5 / vbv_maxrate=50000 / vbv_bufsize=62500 / nal_hrd=none / filler=0 / ip_ratio=1.40 / pb_ratio=1.30 / aq=1:0.70
Language : English
Default : Yes
Forced : No

Audio #1
ID : 2
Format : AC-3
Format/Info : Audio Coding 3
Format settings, Endianness : Big
Codec ID : A_AC3
Duration : 1 h 41 min
Bit rate mode : Constant
Bit rate : 384 kb/s
Channel(s) : 6 channels
Channel positions : Front: L C R, Side: L R, LFE
Sampling rate : 48.0 kHz
Frame rate : 31.250 FPS (1536 SPF)
Bit depth : 16 bits
Compression mode : Lossy
Delay relative to video : 500 ms
Stream size : 278 MiB (10%)
Title : MOV | ICTV
Language : Ukrainian
Service kind : Complete Main
Default : Yes
Forced : Yes

Audio #2
ID : 3
Format : AC-3
Format/Info : Audio Coding 3
Format settings, Endianness : Big
Codec ID : A_AC3
Duration : 1 h 41 min
Bit rate mode : Constant
Bit rate : 384 kb/s
Channel(s) : 6 channels
Channel positions : Front: L C R, Side: L R, LFE
Sampling rate : 48.0 kHz
Frame rate : 31.250 FPS (1536 SPF)
Bit depth : 16 bits
Compression mode : Lossy
Delay relative to video : 500 ms
Stream size : 278 MiB (10%)
Title : Original
Language : English
Service kind : Complete Main
Default : No
Forced : No

Text
ID : 4
Format : UTF-8
Codec ID : S_TEXT/UTF8
Codec ID/Info : UTF-8 Plain Text
Duration : 1 h 40 min
Bit rate : 51 b/s
Count of elements : 1613
Stream size : 37.7 KiB (0%)
Language : English
Default : No
Forced : No
Скріншоти:


Запис: DareDevil96
Зведеня: MutuLI


Срібний реліз (на рейтинг впливає 50% завантаженого)
 Трекер:    Зареєстрований   

Завантажити / скачати фільм українською



відео для новачків



 Зареєстрований:   2017-08-12 00:17
 Розмір:   2.63 GB 
 Оцінка фільму:   8.1/10 (Голосів: 10)
   
Інші релізи
   Конвоїри / Chasers (1994) Ukr/Eng Arsenfpu  1 / 1   1.91 GB   2017-08-13 13:38 
Maximenko Yuriy 
VIP


З нами з: 17.11.08
Востаннє: 16.08.17
Повідомлень: 412

2017-08-12 15:34  
а аві буде?
Ваш часовий пояс: GMT + 2 Години

Нова тема   Відповісти