Воно / It (1990) 720p Ukr/Eng | Sub Eng

Нові коментарі

Нова тема   Відповісти
Автор Повідомлення
taraskill1 
Модератор відео


З нами з: 21.01.12
Востаннє: 20.08.17
Повідомлень: 1034

2017-08-11 10:02  
Воно / It (1990) 720p Ukr/Eng | Sub Eng
за романом Стівена Кінґа


Жанр: жахи, фантастика, драма
Країна: США, Канада



Кінокомпанія: Green/Epstein Productions, Konigsberg/Sanitsky Company, Lorimar Television
Режисер: Томмі Лі Воллес / Tommy Lee Wallace
Актори: Гаррі Андерсон / Harry Anderson, Денніс Крістофер / Dennis Christopher, Річард Мейсер / Richard Masur, Аннетт О’Тул / Annette O'Toole, Тім Рейд / Tim Reid, Джон Ріттер / John Ritter, Річард Томас / Richard Thomas, Сет Ґрін / Seth Green, Тім Каррі / Tim Curry та інші

Сюжет:
Воно - пекельна істота , що наче випірнула з нічних кошмарів. Воно живиться людським страхом... Колись давно семеро дітей змогли перемогти Його. Але майже тридцять років по тому Воно повертається, щоб помститись. У містечку знову ллється кров і зникають діти. Із пекельних жахів виринуло страхіття, що не має імені. І вже дорослі друзі мають вступити в нову битву зі Злом...


Тривалість: 03:07:25
Якість: 720p
Відео:
кодек:
розмір кадру: 960x720 (1.33:1)
бітрейт: 4575 кб/с

Аудіо # 1:
мова: українська
переклад: багатоголосий закадровий
кодек: 2.0
бітрейт: 192 кб/с

Аудіо # 2:
мова: англійська
переклад: оригінал
кодек: 2.0
бітрейт: 192 кб/с

Субтитри:
мова: англійська
тип: програмні (м'які)
формат: *.srt
Info
Код:
General
Unique ID                   : 197587834381495220351549510745135339516 (0x94A6085E40E766028BB56DFC66A957FC)
Complete name               : D:\It (1990) [Ukr,Eng] 720p  [Hurtom].
Format                      :
Format version              : Version 4 / Version 2
File size                   : 6.63 GiB
Duration                    : 3 h 7 min
Overall bit rate            : 5 067 kb/s
Encoded date                : UTC 2017-08-11 06:49:18
Writing application         : mkvmerge v14.0.0 ('Flow') 64bit
Writing library             : libebml v1.3.4 + libmatroska v1.4.5

Video
ID                          : 1
Format                      : AVC
Format/Info                 : Advanced Video Codec
Format profile              : [email protected]
Format settings, CABAC      : Yes
Format settings, ReFrames   : 9 frames
Codec ID                    : V_MPEG4/ISO/AVC
Duration                    : 3 h 7 min
Bit rate                    : 4 681 kb/s
Width                       : 960 pixels
Height                      : 720 pixels
Display aspect ratio        : 4:3
Frame rate mode             : Constant
Frame rate                  : 23.976 (24000/1001) FPS
Color space                 : YUV
Chroma subsampling          : 4:2:0
Bit depth                   : 8 bits
Scan type                   : Progressive
Bits/(Pixel*Frame)          : 0.282
Stream size                 : 6.13 GiB (92%)
Writing library             : core 146 r2538 121396c
Encoding settings           : cabac=1 / ref=9 / deblock=1:-3:-3 / analyse=0x3:0x113 / me=umh / subme=10 / psy=1 / psy_rd=1.00:0.15 / mixed_ref=1 / me_range=32 / chroma_me=1 / trellis=2 / 8x8dct=1 / cqm=0 / deadzone=21,11 / fast_pskip=1 / chroma_qp_offset=-3 / threads=6 / lookahead_threads=1 / sliced_threads=0 / nr=0 / decimate=1 / interlaced=0 / bluray_compat=0 / constrained_intra=0 / bframes=11 / b_pyramid=2 / b_adapt=2 / b_bias=0 / direct=1 / weightb=1 / open_gop=0 / weightp=2 / keyint=230 / keyint_min=23 / scenecut=40 / intra_refresh=0 / rc_lookahead=40 / rc=crf / mbtree=0 / crf=20.5 / qcomp=0.60 / qpmin=0 / qpmax=69 / qpstep=4 / vbv_maxrate=40000 / vbv_bufsize=50000 / crf_max=0.0 / nal_hrd=none / filler=0 / ip_ratio=1.40 / pb_ratio=1.30 / aq=1:1.00
Language                    : English
Default                     : Yes
Forced                      : No

Audio #1
ID                          : 2
Format                      : AC-3
Format/Info                 : Audio Coding 3
Format settings, Endianness : Big
Codec ID                    : A_AC3
Duration                    : 3 h 7 min
Bit rate mode               : Constant
Bit rate                    : 192 kb/s
Channel(s)                  : 2 channels
Channel positions           : Front: L R
Sampling rate               : 48.0 kHz
Frame rate                  : 31.250 FPS (1536 spf)
Bit depth                   : 16 bits
Compression mode            : Lossy
Stream size                 : 257 MiB (4%)
Language                    : Ukrainian
Service kind                : Complete Main
Default                     : Yes
Forced                      : Yes

Audio #2
ID                          : 3
Format                      : AC-3
Format/Info                 : Audio Coding 3
Format settings, Endianness : Big
Codec ID                    : A_AC3
Duration                    : 3 h 7 min
Bit rate mode               : Constant
Bit rate                    : 192 kb/s
Channel(s)                  : 2 channels
Channel positions           : Front: L R
Sampling rate               : 48.0 kHz
Frame rate                  : 31.250 FPS (1536 spf)
Bit depth                   : 16 bits
Compression mode            : Lossy
Stream size                 : 257 MiB (4%)
Title                       : original
Language                    : English
Service kind                : Complete Main
Default                     : No
Forced                      : No

Text
ID                          : 4
Format                      : UTF-8
Codec ID                    : S_TEXT/UTF8
Codec ID/Info               : UTF-8 Plain Text
Duration                    : 3 h 5 min
Bit rate                    : 48 b/s
Count of elements           : 1874
Stream size                 : 65.8 KiB (0%)
Language                    : English
Default                     : No
Forced                      : No


Джерело:
Звукозапис з ТБ: robotron005
Зведення звуку: taraskill1, RB26DETT
Виготовлення постеру: hellforces
Особиста оцінка: 6 - третій сорт - не брак


Срібний реліз (на рейтинг впливає 50% завантаженого)
 Трекер:    Зареєстрований   

Завантажити / скачати фільм українською



відео для новачків



 Зареєстрований:   2017-08-11 10:02
 Розмір:   6.63 GB 
 Оцінка фільму:   4.3/10 (Голосів: 16)
   
Інші релізи
   Воно / It (1990) Ukr/Eng taraskill1  15 / 0   2.91 GB   2017-08-11 09:31 
casper101 
Поважний учасник


З нами з: 03.12.09
Востаннє: 19.08.17
Повідомлень: 207

2017-08-11 10:42  
скоро буде нова версія.
Anubys 
VIP


З нами з: 09.11.09
Востаннє: 20.08.17
Повідомлень: 331

2017-08-12 18:46  
Фільм сподобався, тільки одного не розумію нащо викладати тільки 720, якщо є 1080p.
0mage0 
Свій


З нами з: 06.10.15
Востаннє: 20.08.17
Повідомлень: 51

2017-08-19 18:43  
Фільм так собі, озвучка теж не дуже, оригінальна доріжка слабо приглушена, накладається на переклад, часто важко розібрати слова.
В перекладі наявні кальки втрачати свідомість, знаходитися, власті (це щось нове), виглядати Sad (1)

Ваш часовий пояс: GMT + 2 Години

Нова тема   Відповісти