Дора і друзі. Пригоди в місті / Dora and Friends: Into the City! (Сезон 1, 17 серій з 20) (2014) HDTV 1080i

Нові коментарі

Нова тема   Відповісти
Останній раз роздавалося rsumytus (2021-04-16)
Автор Повідомлення
sergiyko.5 
Забанено
Забанено


З нами з: 25.02.16
Востаннє: 29.10.20
Повідомлень: 3648

2017-08-10 20:03  
Дора і друзі. Пригоди в місті / Dora and Friends: Into the City! (Сезон 1, 17 серій з 20) (2014) HDTV 1080i

Дора і друзі. Пригоди в місті / Dora and Friends: Into the City! (Сезон 1, 17 серій з 20) (2014) HDTV 1080i

Жанр: дитячий, музичний, пригодницький
Країна: США
Кінокомпанія: Nickelodeon Studios
Режисер: Джордж Чалтас, Аллан Якобсен
Актори: Фатіма Пташек, Едуардо Карденас Арестізабал, Ешлі Ернест та інші

Сюжет:
Всі ви добре знаєте нашу допитливу Дору, яка не раз задавала вам захоплюючі питання і допомагала дізнатися стільки цікавого про цей світ. Тепер ця симпатична дівчинка переїхала в місто Плайя-Верде, де у неї з'явилася сила-силенна нових друзів. Кейт, Алана, Емма і Пабло ходять з нею в одну школу, а у вільний час їх чекають справжні пригоди. У Дори з'явився особливий магічний браслет і спеціальний телефон, на якому є карта їх міста. Вона потрібна, щоб виконувати важливі завдання, відмічені на карті. Кожен раз друзі допомагають комусь вирішити проблему або просто роблять добрі справи, дізнаючись при цьому багато нового.




Тривалість: 1 серія: 22:30 (цілком серій: 17)
Якість: HDTV

Відео: кодек: розмір кадру: 1920 х 1080 бітрейт: 5520 кб/с
Аудіо: мова: українська переклад: професійний дубльований кодек: 2.0 бітрейт: 192 кб/с
Джерело озвучення:
Перелік серій
01 День допомоги собакам
02 Порятунок піратського корабля
03 Танці
04 Чарівний перстень
05 Королівський бал
06 Дивосвіт
07 Дора рятує операленд
08 Театр ляльок
09 Таємниця чарівних коней
10 Пошуки моно
11 Перегони
12 Надзвичайні пригоди русалки
13-14 Порятунок принцеси собак
15 Врятуймо музику
16 Туристичний похід
17 Подорож до країни годинників
18 Хелловін
19-20 Драконка у школі
Про файл
General
Unique ID : 228952975184446340179143053886663490400 (0xAC3EBD341CDC77D38BD64D8937BCFB60)
Complete name : E:\MULTFILMS\Dora and Friends Into the City S01 1080p HDTV\S01E01.Doggie Day.1080i.HDTV.
Format :
Format version : Version 4 / Version 2
File size : 914 MiB
Duration : 22 min 17 s
Overall bit rate : 5 733 kb/s
Movie name : Dora and Friends Into the City S01 1080i HDTV by sergiyko
Encoded date : UTC 2017-07-15 08:27:08
Writing application : v13.0.0 ('The Juggler') 64bit
Writing library : libebml v1.3.4 + v1.4.5

Video
ID : 1
Format : AVC
Format/Info : Advanced Video Codec
Format profile : [email protected]
Format settings, CABAC : Yes
Format settings, RefFrames : 3 frames
Codec ID : V_MPEG4/ISO/AVC
Duration : 22 min 17 s
Bit rate : 5 538 kb/s
Width : 1 920 pixels
Height : 1 080 pixels
Display aspect ratio : 16:9
Frame rate mode : Variable
Frame rate : 50.000 FPS
Original frame rate : 25.000 FPS
Standard : Component
Color space : YUV
Chroma subsampling : 4:2:0
Bit depth : 8 bits
Scan type : Interlaced
Scan type, store method : Separated fields
Scan order : Top Field First
Bits/(Pixel*Frame) : 0.053
Stream size : 883 MiB (97%)
Title : S01E01.Doggie Day.1080i.HDTV
Language : English
Default : Yes
Forced : No
Color range : Limited
Color primaries : BT.709
Transfer characteristics : BT.709
Matrix coefficients : BT.709

Audio
ID : 2
Format : E-AC-3
Format/Info : Enhanced Audio Coding 3
Format settings, Endianness : Big
Codec ID : A_EAC3
Duration : 22 min 17 s
Bit rate mode : Constant
Bit rate : 192 kb/s
Channel(s) : 2 channels
Channel positions : Front: L R
Sampling rate : 48.0 kHz
Frame rate : 187.500 FPS (256 SPF)
Compression mode : Lossy
Stream size : 30.6 MiB (3%)
Title : DUB | ПлюсПлюс
Language : Ukrainian
Service kind : Complete Main
Default : Yes
Forced : No
Скріншоти:


Реліз: sergiyko



Бронзовий реліз (на рейтинг впливає 75% завантаженого)
 Трекер:    Зареєстрований   

Завантажити / скачати мультфільм українською



відео для новачків



 Зареєстрований:   2017-08-10 21:17
 Розмір:   15.72 GB 
 Оцінка мультсеріалу:   8.6/10 (Голосів: 7)
   
Ваш часовий пояс: GMT + 2 Години

Нова тема   Відповісти