Дора і друзі. Пригоди в місті / Dora and Friends: Into the City! (Сезон 1, 18 серій з 20) (2014) 720p

Нові коментарі

Нова тема   Відповісти
Автор Повідомлення
sergiyko.5 
Забанено
Забанено


З нами з: 25.02.16
Востаннє: 29.10.20
Повідомлень: 3648

2017-08-10 19:54  
Дора і друзі. Пригоди в місті / Dora and Friends: Into the City! (Сезон 1) (2014) 720p

Дора і друзі. Пригоди в місті / Dora and Friends: Into the City! (Сезон 1, 18 серій з 20) (2014) 720p

Жанр: дитячий, музичний, пригодницький
Країна: США
Кінокомпанія: Nickelodeon Studios
Режисер: Джордж Чалтас, Аллан Якобсен
Актори: Фатіма Пташек, Едуардо Карденас Арестізабал, Ешлі Ернест та інші

Сюжет:
Всі ви добре знаєте нашу допитливу Дору, яка не раз задавала вам захоплюючі питання і допомагала дізнатися стільки цікавого про цей світ. Тепер ця симпатична дівчинка переїхала в місто Плайя-Верде, де у неї з'явилася сила-силенна нових друзів. Кейт, Алана, Емма і Пабло ходять з нею в одну школу, а у вільний час їх чекають справжні пригоди. У Дори з'явився особливий магічний браслет і спеціальний телефон, на якому є карта їх міста. Вона потрібна, щоб виконувати важливі завдання, відмічені на карті. Кожен раз друзі допомагають комусь вирішити проблему або просто роблять добрі справи, дізнаючись при цьому багато нового.




Тривалість: 1 серія: 22:30 (цілком серій: 18)
Якість:

Відео: кодек: розмір кадру: 1280 х 720 бітрейт: 2320 кб/с
Аудіо: мова: українська переклад: професійний дубльований кодек: 2.0 бітрейт: 192 кб/с
Джерело озвучення:
Перелік серій
01 День допомоги собакам
02 Порятунок піратського корабля
03 Танці
04 Чарівний перстень
05 Королівський бал
06 Дивосвіт
07 Дора рятує операленд
08 Театр ляльок
09 Таємниця чарівних коней
10 Пошуки моно
11 Перегони
12 Надзвичайні пригоди русалки
13-14 Порятунок принцеси собак
15 Врятуймо музику
16 Туристичний похід
17 Подорож до країни годинників
18 Хелловін
19-20 Драконка у школі
Про файл
General
Unique ID : 199792866649692897731315502910764756703 (0x964EB4DA458A5862BCD2A515AEE82EDF)
Complete name : E:\MULTFILMS\Dora and Friends Into the City S01 720p \S01E02.We Save a Pirate Ship.720p..
Format :
Format version : Version 4 / Version 2
File size : 402 MiB
Duration : 22 min 17 s
Overall bit rate : 2 524 kb/s
Movie name : Dora and Friends Into the City S01 720p by sergiyko
Encoded date : UTC 2017-07-15 08:17:29
Writing application : v13.0.0 ('The Juggler') 64bit
Writing library : libebml v1.3.4 + v1.4.5

Video
ID : 1
Format : AVC
Format/Info : Advanced Video Codec
Format profile : [email protected]
Format settings, CABAC : Yes
Format settings, RefFrames : 9 frames
Codec ID : V_MPEG4/ISO/AVC
Duration : 22 min 17 s
Bit rate : 2 330 kb/s
Width : 1 280 pixels
Height : 720 pixels
Display aspect ratio : 16:9
Frame rate mode : Constant
Frame rate : 25.000 FPS
Color space : YUV
Chroma subsampling : 4:2:0
Bit depth : 8 bits
Scan type : Progressive
Bits/(Pixel*Frame) : 0.101
Stream size : 371 MiB (92%)
Title : S01E02.We Save a Pirate Ship.720p.
Writing library : core 146 r2538 121396c
Encoding settings : cabac=1 / ref=9 / deblock=1:-1:0 / analyse=0x3:0x113 / me=umh / subme=9 / psy=1 / psy_rd=0.40:0.00 / mixed_ref=1 / me_range=16 / chroma_me=1 / trellis=2 / 8x8dct=1 / cqm=0 / deadzone=21,11 / fast_pskip=1 / chroma_qp_offset=-2 / threads=24 / lookahead_threads=2 / sliced_threads=0 / nr=0 / decimate=1 / interlaced=0 / bluray_compat=0 / constrained_intra=0 / bframes=5 / b_pyramid=2 / b_adapt=2 / b_bias=0 / direct=3 / weightb=1 / open_gop=0 / weightp=2 / keyint=250 / keyint_min=25 / scenecut=40 / intra_refresh=0 / rc_lookahead=60 / rc=crf / mbtree=1 / crf=18.0 / qcomp=0.70 / qpmin=0 / qpmax=69 / qpstep=4 / vbv_maxrate=50000 / vbv_bufsize=62500 / crf_max=0.0 / nal_hrd=none / filler=0 / ip_ratio=1.40 / aq=1:0.60
Language : English
Default : Yes
Forced : No

Audio
ID : 2
Format : E-AC-3
Format/Info : Enhanced Audio Coding 3
Format settings, Endianness : Big
Codec ID : A_EAC3
Duration : 22 min 17 s
Bit rate mode : Constant
Bit rate : 192 kb/s
Channel(s) : 2 channels
Channel positions : Front: L R
Sampling rate : 48.0 kHz
Frame rate : 187.500 FPS (256 SPF)
Compression mode : Lossy
Stream size : 30.6 MiB (8%)
Title : DUB | ПлюсПлюс
Language : Ukrainian
Service kind : Complete Main
Default : Yes
Forced : No
Скріншоти:


Реліз: sergiyko



Бронзовий реліз (на рейтинг впливає 75% завантаженого)
 Трекер:    Зареєстрований   

Завантажити / скачати мультфільм українською



відео для новачків



 Зареєстрований:   2017-08-10 19:54
 Розмір:   7.22 GB 
 Оцінка мультсеріалу:   10/10 (Голосів: 9)
   
ntrader 
Свій


З нами з: 31.05.16
Востаннє: 09.04.21
Повідомлень: 71

2019-10-20 22:03  
Дивно, що досі нема жодного відгуку. Дякую за гарну якість і гарний повчальний мультфільм для діток.
Ваш часовий пояс: GMT + 2 Години

Нова тема   Відповісти