Поцілунок навиліт / Kiss Kiss Bang Bang (2005) Remux 1080p Ukr/Eng | Sub Eng/Fra

Нові коментарі

Нова тема   Відповісти
Автор Повідомлення
IronBee 
Свій


З нами з: 08.02.10
Востаннє: 16.12.17
Повідомлень: 89

2017-08-10 18:48  
Поцілунок навиліт / Kiss Kiss Bang Bang (2005) Remux Ukr/Eng | Sub Eng/Fra

Поцілунок навиліт / Kiss Kiss Bang Bang (2005) Remux 1080p Ukr/Eng | Sub Eng/Fra


Жанр: бойовик, комедія, мелодрама, трилер
Країна: США



Режисер: Шейн Блек
Актори: Роберт Дауні мол., Вел Кілмер, Мішель Монахен, Корбін Бернсен, Деш Майок, Ларрі Міллер, Рокмонд Данбар, Шаннін Соссамон, Анджела Ліндвелл, Індіо Фалконер Дауні

Сюжет:
Дрібний злодій зображаючи актора, приїжджає до Лос-Анжелеса взяти участь в прослуховуванні. Незабаром він опиниться в самому центрі розслідування вбивства разом з сексуальною студенткою і приватним детективом-геєм.


Тривалість: 01:42:42
Якість: Remux
Відео:
кодек: MPEG2
розмір кадру: 1920 х 1080
бітрейт: 17,3 Мб/с

Аудіо # 1:
мова: українська
переклад: багатоголосий закадровий
кодек: 5.1
бітрейт: 384 кб/с
примітка: присутній ґандж - ефект "зламаного піаніно"

Аудіо # 2:
мова: англійська
переклад: оригінал
кодек: 5.1
бітрейт: 640 кб/с

Аудіо # 3:
мова: англійська (коментарі режисера)
переклад: оригінал
кодек: 5.1
бітрейт: 192 кб/с

Субтитри # 1, 3:
мова: англійська
тип: пререндерні
формат: *.PGS

Субтитри # 2:
мова: французька
тип: пререндерні
формат: *.PGS
Info
General
Unique ID : 252141701681809891162679847554706730547 (0xBDB0B9B085DA4628B7DCAAC7B4DE6E33)
Complete name : D:\Films\Поцілунок на виліт Kiss, Kiss, Bang, Bang (2005) Remux 1080p UkrEng Sub Eng[Hurtom].
Format :
Format version : Version 4 / Version 2
File size : 13.3 GiB
Duration : 1 h 42 min
Overall bit rate mode : Variable
Overall bit rate : 18.6 Mb/s
Encoded date : UTC 2017-08-07 15:14:00
Writing application : mkvmerge v14.0.0 ('Flow') 64bit
Writing library : libebml v1.3.4 + libmatroska v1.4.5

Video
ID : 1
Format : MPEG Video
Format version : Version 2
Format profile : [email protected]
Format settings, BVOP : Yes
Format settings, Matrix : Custom
Format settings, GOP : M=3, N=15
Codec ID : V_MPEG2
Codec ID/Info : MPEG 1 or 2 Video
Duration : 1 h 42 min
Bit rate mode : Variable
Bit rate : 17.3 Mb/s
Maximum bit rate : 30.0 Mb/s
Width : 1 920 pixels
Height : 1 080 pixels
Display aspect ratio : 16:9
Frame rate mode : Constant
Frame rate : 23.976 (24000/1001) FPS
Color space : YUV
Chroma subsampling : 4:2:0
Bit depth : 8 bits
Scan type : Progressive
Compression mode : Lossy
Bits/(Pixel*Frame) : 0.348
Time code of first frame : 00:59:58:00
Time code source : Group of pictures header
GOP, Open/Closed : Open
GOP, Open/Closed of first f : Closed
Stream size : 12.4 GiB (93%)
Default : Yes
Forced : No

Audio #1
ID : 2
Format : AC-3
Format/Info : Audio Coding 3
Mode extension : CM (complete main)
Format settings, Endianness : Big
Codec ID : A_AC3
Duration : 1 h 42 min
Bit rate mode : Constant
Bit rate : 384 kb/s
Channel(s) : 6 channels
Channel positions : Front: L C R, Side: L R, LFE
Sampling rate : 48.0 kHz
Frame rate : 31.250 FPS (1536 spf)
Bit depth : 16 bits
Compression mode : Lossy
Stream size : 282 MiB (2%)
Language : Ukrainian
Default : Yes
Forced : No

Audio #2
ID : 3
Format : AC-3
Format/Info : Audio Coding 3
Mode extension : CM (complete main)
Format settings, Endianness : Big
Codec ID : A_AC3
Duration : 1 h 42 min
Bit rate mode : Constant
Bit rate : 640 kb/s
Channel(s) : 6 channels
Channel positions : Front: L C R, Side: L R, LFE
Sampling rate : 48.0 kHz
Frame rate : 31.250 FPS (1536 spf)
Bit depth : 16 bits
Compression mode : Lossy
Stream size : 470 MiB (3%)
Language : English
Default : No
Forced : No

Audio #3
ID : 4
Format : AC-3
Format/Info : Audio Coding 3
Format profile : Dolby Digital
Mode extension : CM (complete main)
Format settings, Endianness : Big
Codec ID : A_AC3
Duration : 1 h 42 min
Bit rate mode : Constant
Bit rate : 192 kb/s
Channel(s) : 2 channels
Channel positions : Front: L R
Sampling rate : 48.0 kHz
Frame rate : 31.250 FPS (1536 spf)
Bit depth : 16 bits
Compression mode : Lossy
Stream size : 141 MiB (1%)
Language : English
Default : No
Forced : No

Text #1
ID : 5
Format : PGS
Muxing mode : zlib
Codec ID : S_HDMV/PGS
Codec ID/Info : Picture based subtitle format used on BDs/HD-DVDs
Duration : 1 h 41 min
Bit rate : 75.0 kb/s
Count of elements : 2850
Stream size : 54.7 MiB (0%)
Language : English
Default : Yes
Forced : No

Text #2
ID : 6
Format : PGS
Muxing mode : zlib
Codec ID : S_HDMV/PGS
Codec ID/Info : Picture based subtitle format used on BDs/HD-DVDs
Duration : 1 h 41 min
Bit rate : 53.5 kb/s
Count of elements : 2758
Stream size : 39.0 MiB (0%)
Language : French
Default : No
Forced : No

Text #3
ID : 7
Format : PGS
Muxing mode : zlib
Codec ID : S_HDMV/PGS
Codec ID/Info : Picture based subtitle format used on BDs/HD-DVDs
Duration : 1 h 42 min
Bit rate : 79.3 kb/s
Count of elements : 3025
Stream size : 57.9 MiB (0%)
Language : English
Default : No
Forced : No
Скріншоти



Подяки:
FireStar за українізований постер,
Weber за сиру доріжку,
Romario_O за готову доріжку

Джерело: &
Особиста оцінка: 10 - без зайвих вагань рекомендую всім!


Золотий реліз (завантажене не впливає на рейтинг)
 Трекер:    Зареєстрований   

Завантажити / скачати фільм українською



відео для новачків



 Зареєстрований:   2017-08-10 18:48
 Розмір:   13.33 GB 
 Оцінка фільму:   8.7/10 (Голосів: 7)
   
ika1963 
Відео Гуртом - дизайнер
Відео Гуртом - дизайнер


З нами з: 13.05.10
Востаннє: 16.12.17
Повідомлень: 238

2017-08-10 23:48  
Веселий фільм!!!
Explorer UA 
Новенький


З нами з: 31.08.16
Востаннє: 16.12.17
Повідомлень: 12

2017-08-13 15:25  
Звук паскудний. Музичний супровід ніби складається з двох доріжок з інтервалом у чверть тона. Так можна рак вуха отримати))
IronBee 
Свій


З нами з: 08.02.10
Востаннє: 16.12.17
Повідомлень: 89

2017-08-13 16:26  
Не знаю звук як звук переклад: багатоголосий закадровий все відповідає)
Це ще нормальний звук

Explorer UA 
Новенький


З нами з: 31.08.16
Востаннє: 16.12.17
Повідомлень: 12

2017-08-13 18:29  
До перекладу і голосів претензій немає. Музика двоїться)
igor911 
Відео Гуртом
Відео Гуртом


З нами з: 18.01.08
Востаннє: 16.12.17
Повідомлень: 8515

2017-08-20 15:35  
Explorer UA написано:
Звук паскудний. Музичний супровід ніби складається з двох доріжок з інтервалом у чверть тона. Так можна рак вуха отримати))

це ефект "зламаного піаніно" у неякісних псевдо-5.1 доріжках. Про цю доріжку вже писали https://toloka.to/t4270-30#896518 :
tarick написано:
Тут ефект піаніно в українській доріжці. Ідентично в сусідньому 720p mini релізі.

Explorer UA 
Новенький


З нами з: 31.08.16
Востаннє: 16.12.17
Повідомлень: 12

2017-08-30 21:08  
igor911 дуже влучний термін, не налаштоване піаніно саме такий звук дає.
Ваш часовий пояс: GMT + 2 Години

Нова тема   Відповісти