Це безглузде кохання / Crazy, Stupid, Love. (2011) Remux 1080p 2xUkr/Eng | Sub Ukr/Eng

Нові коментарі

Нова тема   Відповісти
Автор Повідомлення
Premer_Joker 
Частий відвідувач


З нами з: 22.01.13
Востаннє: 24.09.17
Повідомлень: 36

2017-08-10 07:50  
Це безглузде кохання / Crazy, Stupid, Love. (2011) Remux 1080p 2xUkr/Eng | Sub Ukr/Eng

Це безглузде кохання / Crazy, Stupid, Love. (2011) Remux 1080p 2xUkr/Eng | Sub Ukr/Eng


Жанр: романтична комедія, драма
Країна: США



Кінокомпанія: Carousel Productions
Режисер: Гленн Фікарра (Glenn Ficarra), Джон Рекуа (John Requa)
Актори: Стів Карелл (Steve Carell), Раян Гослінг (Ryan Gosling), Джуліана Мур (Julianne Moore), Емма Стоун (Emma Stone), Маріса Томей (Marisa Tomei), Кевін Бейкон (Kevin Bacon) та інші.

Сюжет:
Кел та Емілі одружені вже двадцять років. Вона рішуча і вольова, він - несміливий і безхребетний. Вона - ефектна жінка в повному розквіті сил, він - звичайна офісна "сіра миша" чоловічої статі. Зрештою Емілі все це набридає і в пік "кризи середнього віку" вона вимагає від нього розлучення - вільна Емілі відправляється будувати своє життя, а морально знищений Кел змушений витримувати масні жарти колег і напиватися в барі. Одного вечора його зустрічає там красень і улюбленець жінок Джейкоб - повна протилежність Кела. Слово за слово і Джейкоб вирішує допомогти нещасному - бере його під своє крило, вчить поводитись з жінками, ходити в спортзал і взагалі стежити за своєю зовнішністю, виліплюючи з Кела справжнього плейбоя. Та попри зовнішні зміни Кел досі любить Емілі, яку до того ж часто бачить, бо у їхнього спільного сина розпочинаються підліткові проблеми з жіночою статтю - малий закохується в свою няню. Тепер для Кела настає час пустити свої нові знання і вміння в дію...


Тривалість: 01:58:07
Якість:
Відео:
кодек:
розмір кадру: 1920 х 1080
бітрейт: 13,9 Мб/с

Аудіо # 1:
мова: українська
переклад: професійний дубльований
кодек: 5.1
бітрейт: 384 кб/с

Аудіо # 2:
мова: українська
переклад: багатоголосий закадровий
кодек: 2.0
бітрейт: 192 кб/с

Аудіо # 3:
мова: англійська
переклад: оригінал
кодек: -HD MA 5.1
бітрейт: 3697 кб/с

Субтитри:
мова: українська
тип: програмні (м'які)
формат: *.srt

Субтитри:
мова: англійська
тип: програмні (м'які)
формат: *.srt

Субтитри:
мова: англійська (SDH)
тип: програмні (м'які)
формат: *.srt
Info
General
Unique ID : 241157359433616373989059842034983686369 (0xB56D37CDD0F175999CD5D8E0224AD0E1)
Complete name : D:\Video\Crazy, Stupid, Love (2011) Remux 1080p [2xUkr,Eng] [Sub Ukr,Eng].
Format :
Format version : Version 4 / Version 2
File size : 15.0 GiB
Duration : 1 h 58 min
Overall bit rate mode : Variable
Overall bit rate : 18.2 Mb/s
Movie name : Talian-
Encoded date : UTC 2017-08-10 04:22:57
Writing application : mkvmerge v14.0.0 ('Flow') 64bit
Writing library : libebml v1.3.4 + libmatroska v1.4.5

Video
ID : 1
Format : AVC
Format/Info : Advanced Video Codec
Format profile : [email protected]
Format settings, CABAC : Yes
Format settings, RefFrames : 2 frames
Format settings, GOP : M=1, N=10
Codec ID : V_MPEG4/ISO/AVC
Duration : 1 h 58 min
Bit rate mode : Variable
Bit rate : 13.9 Mb/s
Width : 1 920 pixels
Height : 1 080 pixels
Display aspect ratio : 16:9
Frame rate mode : Constant
Frame rate : 23.976 (24000/1001) FPS
Color space : YUV
Chroma subsampling : 4:2:0
Bit depth : 8 bits
Scan type : Progressive
Bits/(Pixel*Frame) : 0.280
Stream size : 11.5 GiB (77%)
Title : Це безглузде кохання \ Crazy, Stupid, Love (2011) Remux 1080p 2xUkr/Eng | Sub Ukr/Eng
Language : English
Default : No
Forced : No

Audio #1
ID : 2
Format : AC-3
Format/Info : Audio Coding 3
Format settings, Endianness : Big
Codec ID : A_AC3
Duration : 1 h 58 min
Bit rate mode : Constant
Bit rate : 384 kb/s
Channel(s) : 6 channels
Channel positions : Front: L C R, Side: L R, LFE
Sampling rate : 48.0 kHz
Frame rate : 31.250 FPS (1536 SPF)
Bit depth : 16 bits
Compression mode : Lossy
Stream size : 324 MiB (2%)
Title : DUB [DVD-R5]
Language : Ukrainian
Service kind : Complete Main
Default : Yes
Forced : Yes

Audio #2
ID : 3
Format : AC-3
Format/Info : Audio Coding 3
Format settings, Endianness : Big
Codec ID : A_AC3
Duration : 1 h 58 min
Bit rate mode : Constant
Bit rate : 192 kb/s
Channel(s) : 2 channels
Channel positions : Front: L R
Sampling rate : 48.0 kHz
Frame rate : 31.250 FPS (1536 SPF)
Bit depth : 16 bits
Compression mode : Lossy
Stream size : 162 MiB (1%)
Title : MVO [Noviy Kanal]
Language : Ukrainian
Service kind : Complete Main
Default : No
Forced : No

Audio #3
ID : 4
Format :
Format/Info : Digital Theater Systems
Format profile : MA / Core
Mode : 16
Format settings, Endianness : Big
Codec ID : A_DTS
Duration : 1 h 58 min
Bit rate mode : Variable / Constant
Bit rate : 3 697 kb/s / 1 509 kb/s
Channel(s) : 6 channels
Channel positions : Front: L C R, Side: L R, LFE
Sampling rate : 48.0 kHz
Frame rate : 93.750 FPS (512 SPF)
Bit depth : 24 bits
Compression mode : Lossless / Lossy
Stream size : 3.05 GiB (20%)
Title : Original
Language : English
Default : No
Forced : No

Text #1
ID : 5
Format : UTF-8
Codec ID : S_TEXT/UTF8
Codec ID/Info : UTF-8 Plain Text
Duration : 1 h 57 min
Bit rate : 96 b/s
Count of elements : 1596
Stream size : 82.8 KiB (0%)
Title : Sub
Language : Ukrainian
Default : No
Forced : No

Text #2
ID : 6
Format : UTF-8
Codec ID : S_TEXT/UTF8
Codec ID/Info : UTF-8 Plain Text
Duration : 1 h 51 min
Bit rate : 69 b/s
Count of elements : 1619
Stream size : 56.8 KiB (0%)
Title : Sub
Language : English
Default : No
Forced : No

Text #3
ID : 7
Format : UTF-8
Codec ID : S_TEXT/UTF8
Codec ID/Info : UTF-8 Plain Text
Duration : 1 h 57 min
Bit rate : 72 b/s
Count of elements : 1799
Stream size : 62.4 KiB (0%)
Title : Sub-SDH
Language : English
Default : No
Forced : No

Menu
00:00:00.000 : en:
00:08:25.713 : en:
00:20:56.421 : en:
00:28:40.552 : en:
00:38:32.560 : en:
00:51:33.673 : en:
01:02:41.007 : en:
01:11:00.547 : en:
01:21:12.117 : en:
01:28:07.198 : en:
01:40:51.962 : en:
01:48:00.807 : en:
01:52:20.525 : en:
Скріншоти
Джерело: &
Особиста оцінка: 9 - давно не бачив настільки якісне кіно


Золотий реліз (завантажене не впливає на рейтинг)
 Трекер:    Зареєстрований   

Завантажити / скачати фільм українською



відео для новачків



 Зареєстрований:   2017-08-10 07:50
 Розмір:   15.02 GB 
 Оцінка фільму:   9.3/10 (Голосів: 11)
   
11FrYkT 
Модератор відео


З нами з: 20.02.11
Востаннє: 17.10.17
Повідомлень: 3961

2017-08-13 17:00  
Premer_Joker, скріншоти мають бути у форматі PNG
Ваш часовий пояс: GMT + 2 Години

Нова тема   Відповісти