Рок Дог / Rock Dog (2016) AVC Ukr/Eng

Нові коментарі

Нова тема   Відповісти
Автор Повідомлення
sergiyko.5 
VIP


З нами з: 25.02.16
Востаннє: 17.08.17
Повідомлень: 986

2017-08-09 21:10  
Рок Дог / Rock Dog (2016) AVC Ukr/Eng

Рок Дог / Rock Dog (2016) AVC Ukr/Eng

Жанр: пригоди, музичний
Країна: Китай, США
Кінокомпанія: Dream Factory Group, Eracme Entertainment, Huayi Tencent Entertainment Company
Режисер: Еш Браннон
Актори: Люк Вілсон, Едді Іззард. Дж.К. Сіммонс, Льюїс Блек, Кенан Томпсон, Мей Уітман, Хорхе Гарсіа, Метт Діллон, Сем Елліотт, Уілл Фінн

Переклад: Юлії Когут
Режисер дубляжу: Олександр Єфімов
Ролі дублювали: Павло Скороходько, Дмитро Завадський, Катерина Брайковська, Юрій Ребрик, Андрій Альохін, Ярослав Чорненький, Анатолій Зіновенко, Кирило Нікітенко та інші.
Фільм дубльовано студією ААА-sound у 2017 році на замовлення компанії Вольга Україна.


Сюжет:
Незважаючи на несхвалення батька, молодий тибетський мастиф мріє вирватися з рідного гірського села і підкорити велике місто. Він ще не знає, що доля підготувала йому масу веселих і небезпечних пригод, завдяки яким він зможе стати тим захисником рідних місць, про якого так мріє його батько.



Тривалість: 01:29:56
Якість:

Відео: кодек: розмір кадру: 1024 х 576 бітрейт: 2700 кб/с
Аудіо #1: мова: українська переклад: дубляж кодек: 2.0 бітрейт: 192 кб/с | MEGOGO |
Аудіо #2: мова: англійська переклад: оригінал кодек: 5.1 бітрейт: 448 кб/с
Субтитри: мова: англійська тип: програмні (м'які) формат: *.srt
Про файл:
General
Unique ID : 234946989402868777891122952133668349944 (0xB0C124EBD42AB2909DE648102C59A7F8)
Complete name : D:\Torrents\MULT\Rock.Dog.2016.AVC.Ukr.Eng.
Format :
Format version : Version 4 / Version 2
File size : 2.10 GiB
Duration : 1 h 29 min
Overall bit rate : 3 349 kb/s
Movie name : Rock Dog 2016 by sergiyko
Encoded date : UTC 2017-08-09 21:01:13
Writing application : mkvmerge v14.0.0 ('Flow') 64bit
Writing library : libebml v1.3.4 + libmatroska v1.4.5
Cover : Yes
Attachments : cover.jpeg

Video
ID : 1
Format : AVC
Format/Info : Advanced Video Codec
Format profile : High@L4.1
Format settings, CABAC : Yes
Format settings, RefFrames : 10 frames
Codec ID : V_MPEG4/ISO/AVC
Duration : 1 h 29 min
Bit rate : 2 718 kb/s
Width : 1 024 pixels
Height : 576 pixels
Display aspect ratio : 16:9
Frame rate mode : Constant
Frame rate : 23.976 (24000/1001) FPS
Color space : YUV
Chroma subsampling : 4:2:0
Bit depth : 8 bits
Scan type : Progressive
Bits/(Pixel*Frame) : 0.192
Stream size : 1.70 GiB (81%)
Title : Rock Dog 2016 AVC
Writing library : core 146 r2538 121396c
Encoding settings : cabac=1 / ref=10 / deblock=1:-3:-3 / analyse=0x3:0x133 / me=umh / subme=11 / psy=1 / psy_rd=1.00:0.07 / mixed_ref=1 / me_range=48 / chroma_me=1 / trellis=2 / 8x8dct=1 / cqm=0 / deadzone=21,11 / fast_pskip=0 / chroma_qp_offset=-3 / threads=6 / lookahead_threads=1 / sliced_threads=0 / nr=0 / decimate=0 / interlaced=0 / bluray_compat=0 / constrained_intra=0 / bframes=10 / b_pyramid=2 / b_adapt=2 / b_bias=0 / direct=3 / weightb=1 / open_gop=0 / weightp=2 / keyint=240 / keyint_min=23 / scenecut=40 / intra_refresh=0 / rc_lookahead=40 / rc=2pass / mbtree=0 / bitrate=2718 / ratetol=1.0 / qcomp=0.60 / qpmin=0 / qpmax=69 / qpstep=4 / cplxblur=20.0 / qblur=0.5 / vbv_maxrate=50000 / vbv_bufsize=62500 / nal_hrd=none / filler=0 / ip_ratio=1.40 / pb_ratio=1.30 / aq=1:1.00
Language : English
Default : Yes
Forced : No

Audio #1
ID : 2
Format : AC-3
Format/Info : Audio Coding 3
Format settings, Endianness : Big
Codec ID : A_AC3
Duration : 1 h 29 min
Bit rate mode : Constant
Bit rate : 192 kb/s
Channel(s) : 2 channels
Channel positions : Front: L R
Sampling rate : 48.0 kHz
Frame rate : 31.250 FPS (1536 SPF)
Bit depth : 16 bits
Compression mode : Lossy
Stream size : 124 MiB (6%)
Title : DUB 2.0ch
Language : Ukrainian
Service kind : Complete Main
Default : Yes
Forced : Yes

Audio #2
ID : 3
Format : AC-3
Format/Info : Audio Coding 3
Format settings, Endianness : Big
Codec ID : A_AC3
Duration : 1 h 29 min
Bit rate mode : Constant
Bit rate : 448 kb/s
Channel(s) : 6 channels
Channel positions : Front: L C R, Side: L R, LFE
Sampling rate : 48.0 kHz
Frame rate : 31.250 FPS (1536 SPF)
Bit depth : 16 bits
Compression mode : Lossy
Stream size : 288 MiB (13%)
Title : Original
Language : English
Service kind : Complete Main
Default : No
Forced : No

Text
ID : 4
Format : UTF-8
Codec ID : S_TEXT/UTF8
Codec ID/Info : UTF-8 Plain Text
Duration : 1 h 29 min
Bit rate : 69 b/s
Count of elements : 1435
Stream size : 45.8 KiB (0%)
Title : Full (SDH)
Language : English
Default : No
Forced : No

Menu
00:00:00.000 : en:00:00:00.000
00:04:59.883 : en:00:04:59.883
00:11:28.897 : en:00:11:28.897
00:17:51.153 : en:00:17:51.153
00:23:27.406 : en:00:23:27.406
00:31:10.827 : en:00:31:10.827
00:35:13.528 : en:00:35:13.528
00:39:05.927 : en:00:39:05.927
00:45:22.470 : en:00:45:22.470
00:50:30.694 : en:00:50:30.694
00:55:35.791 : en:00:55:35.791
00:59:20.599 : en:00:59:20.599
01:04:15.018 : en:01:04:15.018
01:09:00.511 : en:01:09:00.511
01:12:52.034 : en:01:12:52.034
01:18:57.524 : en:01:18:57.524
Скріншоти:


Звук куплено: sergiyko
Зведення: sergiyko


 Трекер:    Зареєстрований   

Завантажити / скачати мультфільм українською



відео для новачків



 Зареєстрований:   2017-08-14 17:45
 Розмір:   2.1 GB 
 Оцінка мультфільму:   9.4/10 (Голосів: 16)
   
Інші релізи
   Рок Дог / Rock Dog (2016) 720p Ukr/Eng | sub Eng sergiyko.5  6 / 0   2.76 GB   2017-08-14 17:43 
   Рок Дог / Rock Dog (2016) 1080p Ukr/Eng | Sub Eng Electroz  26 / 0   9.43 GB   2017-06-26 00:35 
zil1991 
Попереджень: 2
Попереджень: 2 


З нами з: 20.01.16
Востаннє: 16.08.17
Повідомлень: 54

2017-08-11 23:35  
Виправте "з рідної гірського" на "рідного"! Важко опис перечитати перед відправкою?
MemfisANK 
Свій


З нами з: 09.07.10
Востаннє: 16.08.17
Повідомлень: 66

2017-08-12 11:14  
zil1991
погано спалось?
чи сказ чепивсі?

RobertMenus 
Відео Гуртом - субтитрування
Відео Гуртом - субтитрування


З нами з: 08.03.11
Востаннє: 16.08.17
Повідомлень: 78

2017-08-14 16:56  
шось трохи шаблонний і передбачуваний мультик.
в кінці розсинхрон звуку з відео.
але загалом дивитися можна.

sergiyko.5 
VIP


З нами з: 25.02.16
Востаннє: 17.08.17
Повідомлень: 986

2017-08-14 17:45  
Торрент оновлено, виправлена помилка в українській доріжці.
Ваш часовий пояс: GMT + 2 Години

Нова тема   Відповісти