Беверлі Гілз 90210: Нове покоління (Сезон 1) / 90210 (Season 1) (2008) 720p Ukr/Eng

Нові коментарі

Нова тема   Відповісти
Автор Повідомлення
ostipko 
Відео Гуртом - підтримка та поширення
Відео Гуртом - підтримка та поширення


З нами з: 23.02.12
Востаннє: 20.01.19
Повідомлень: 640

2017-08-07 19:35  
Беверлі Гілз 90210: Нове покоління (Сезон 1) / 90210 (Season 1) (2008) 720p Ukr/Eng

Беверлі Гілз 90210: Нове покоління (Сезон 1) / 90210 (Season 1) (2008) 720p Ukr/Eng


Жанр: комедія, драма, романтичний
Країна: США



Кінокомпанія: Sachs/Judah Productions, CBS Productions, CBS Television Studios
Режисер: Дарен Стар, Джеф Юда, Ґабе Сахс / Darren Star, Jeff Judah, Gabe Sachs
Актори: Сена Ґрайс-Біч, Трістан Мак Вайлд, АннаЛіна МакКорд/ Shenae Grimes-Beech, Tristan Mack Wilds, AnnaLynne McCord

Сюжет:
Ласкаво просимо до Беверлі-Хіллз! Тут, як і раніше, сонце світить круглий рік, у барах подають найсмачніші коктейлі, а на пляжі закочують найгаласливіші вечірки! Ось тільки на зміну улюбленим героям 90-х – Брендону та Бренді Волшам прийшли інші – Енні та Діксон Вілсони.


Прохання:
Не втікати з роздачі.


Тривалість: 1 серія: ~46:00 (цілком серій: 24 з 24)
Перелік серій
1. We're Not in Kansas Anymore
2. The Jet Set
3. Lucky Strike
4. The Bubble
5. Wide Awake and Dreaming
6. Model Behavior
7. Hollywood Forever
8. There's No Place Like Homecoming
9. Secrets and Lies
10. Games People Play
11. That Which We Destroy
12. Hello, Goodbye, Amen
13. Love Me or Leave Me
14. By Accident
15. Help Me, Rhonda
16. Of Heartbreaks and Hotels
17. Life's a Drag
18. Off the Rails
19. Okaeri, Donna!
20. Between a Sign and a Hard Place
21. The Dionysian Debacle
22. The Party's Over
23. Zero Tolerance
24. One Party Can Ruin Your Whole Summer
Якість:
Відео:
кодек: AVC
розмір кадру: 1 280 х 720
бітрейт: 4 014 кб/с

Аудіо # 1:
мова: українська
переклад: багатоголосий закадровий
кодек: 2.0
бітрейт: 192 кб/с
зведення: SgBILko

Аудіо # 2:
мова: англійська
переклад: оригінал
кодек: 5.1
бітрейт: 448 кб/с

Джерело озвучення:


Подяка пану drakon87 за надання зведених доріжок та пані hru, яка підняла тему про відсутність даного серіалу.
Info
General
Unique ID : 197588131273750029022697566745259807335 (0x94A617018F8497E69B300664BB0E1267)
Complete name : D:\90210 Нове покоління\90210.NG.S01Е01.02.We're.Not.in.Kansas.Anymore&The.Jet.Set.720p..ukr.
Format :
Format version : Version 2
File size : 2.72 GiB
Duration : 1h 22mn
Overall bit rate : 4 748 Kbps
Movie name : 90210 New Generatioin S01Е01-02 'We're Not in Kansas Anymore' & 'The Jet Set'
Encoded date : UTC 2017-08-07 17:07:19
Writing application : v5.6.0 ('Kenya Kane') built on May 27 2012 16:44:04
Writing library : libebml v1.2.3 + v1.3.0

Video
ID : 1
Format : AVC
Format/Info : Advanced Video Codec
Format profile : [email protected]
Format settings, CABAC : No
Format settings, ReFrames : 2 frames
Codec ID : V_MPEG4/ISO/AVC
Duration : 1h 22mn
Bit rate : 4 014 Kbps
Width : 1 280 pixels
Height : 720 pixels
Display aspect ratio : 16:9
Frame rate mode : Constant
Frame rate : 23.976 fps
Color space : YUV
Chroma subsampling : 4:2:0
Bit depth : 8 bits
Scan type : Progressive
Bits/(Pixel*Frame) : 0.182
Stream size : 2.30 GiB (85%)
Language : English
Default : No
Forced : No
Color range : Limited
Color primaries : BT.709
Transfer characteristics : BT.709
Matrix coefficients : BT.709

Audio #1
ID : 2
Format : AC-3
Format/Info : Audio Coding 3
Mode extension : CM (complete main)
Format settings, Endianness : Big
Muxing mode : Header stripping
Codec ID : A_AC3
Duration : 1h 22mn
Bit rate mode : Constant
Bit rate : 192 Kbps
Channel(s) : 2 channels
Channel positions : Front: L R
Sampling rate : 48.0 KHz
Compression mode : Lossy
Stream size : 113 MiB (4%)
Language : Ukrainian
Default : Yes
Forced : No

Audio #2
ID : 3
Format : AC-3
Format/Info : Audio Coding 3
Mode extension : CM (complete main)
Format settings, Endianness : Big
Muxing mode : Header stripping
Codec ID : A_AC3
Duration : 1h 22mn
Bit rate mode : Constant
Bit rate : 448 Kbps
Channel(s) : 6 channels
Channel positions : Front: L C R, Side: L R, LFE
Sampling rate : 48.0 KHz
Compression mode : Lossy
Stream size : 263 MiB (9%)
Language : English
Default : No
Forced : No
Скріншоти




Джерело: &
Особиста оцінка: 0 - не дивився


Бронзовий реліз (на рейтинг впливає 75% завантаженого)
 Трекер:    Зареєстрований   

Завантажити / скачати серіал українською



відео для новачків



 Зареєстрований:   2017-08-16 19:50
 Розмір:   32.67 GB 
 Оцінка серіалу:   7.1/10 (Голосів: 7)
 90210 Nove Pokolinnia
   
igor911 
Модератор відео


З нами з: 18.01.08
Востаннє: 02.12.20
Повідомлень: 15084

2017-08-07 20:52  
ostipko, в розділі HD скріншоти допускаються лише в png форматі, заміни будь ласка.
ostipko 
Відео Гуртом - підтримка та поширення
Відео Гуртом - підтримка та поширення


З нами з: 23.02.12
Востаннє: 20.01.19
Повідомлень: 640

2017-08-07 22:08  
igor911 написано:
заміни будь ласка

зовсім забув, гаразд, дякую)

krigg070 
Відео Гуртом - фільмокрай
Відео Гуртом - фільмокрай


З нами з: 29.10.14
Востаннє: 02.12.20
Повідомлень: 1819

2017-08-08 08:47  
1. Звук із К1, а не з ТЕТу
2.
ostipko написано:
пану hru, який підняв тему про відсутність даного серіалу

Це панянка, а не пан.
P.S. Від мене буде реліз усіх сезонів у SD якості.

Neytreenor 
Відео Гуртом - запис з ТБ
Відео Гуртом - запис з ТБ


З нами з: 03.04.11
Востаннє: 02.12.20
Повідомлень: 2910

2017-08-08 09:14  
ostipko написано:
Подяка пану drakon87 за надання зведених доріжок та пану hru, який підняв тему про відсутність даного серіалу.

Забув SgBilko, які ті доріжки робив (тобто синхронізував).

ostipko 
Відео Гуртом - підтримка та поширення
Відео Гуртом - підтримка та поширення


З нами з: 23.02.12
Востаннє: 20.01.19
Повідомлень: 640

2017-08-08 12:04  
Neytreenor написано:
Забув SgBilko, які ті доріжки робив (тобто синхронізував).

не забув, прошу глянути уважніше "під українською доріжкою"

Додано через 56 секунд:

krigg070
За мить виправлю, дякую.

Neytreenor 
Відео Гуртом - запис з ТБ
Відео Гуртом - запис з ТБ


З нами з: 03.04.11
Востаннє: 02.12.20
Повідомлень: 2910

2017-08-08 12:43  
ostipko написано:
не забув, прошу глянути уважніше "під українською доріжкою"

Дійсно, не там дивився Happy. Вибачаюсь.

ostipko 
Відео Гуртом - підтримка та поширення
Відео Гуртом - підтримка та поширення


З нами з: 23.02.12
Востаннє: 20.01.19
Повідомлень: 640

2017-08-16 19:52  
Торент перезалито. Повний сезон - вже доступний!

Gespenst 
VIP


З нами з: 30.09.09
Востаннє: 29.11.20
Повідомлень: 314

2017-08-17 06:30  
Ну якщо вже Беверлі Гілз, то тоді вже Сполучені Стати Америки і стат Ґеорґія. Або припинити паплюжити мову транслітерацією, яка створена щоб передавати українську латиницею а не навпаки.
_Andruha_ 
Свій


З нами з: 20.02.10
Востаннє: 25.11.20
Повідомлень: 58

2017-08-17 13:01  
Ну який "Гілз"????Може треба навчитись трохи думати головою і намагатися передати оригінальне звучання, а не "аби не як у москалів"?
ostipko 
Відео Гуртом - підтримка та поширення
Відео Гуртом - підтримка та поширення


З нами з: 23.02.12
Востаннє: 20.01.19
Повідомлень: 640

2017-08-17 13:06  
_Andruha_ написано:
Може треба навчитись трохи думати головою

Переклад назви взято з офіційного сайту телеканалу "ТЕТ".

Ваш часовий пояс: GMT + 2 Години

Нова тема   Відповісти