Дивергент / Divergent (2014) 720p 60fps Ukr/Eng | Transfer

Нові коментарі

Нова тема   Відповісти
Автор Повідомлення
sergiyko.5 
Попереджень: 1
Попереджень: 1 


З нами з: 25.02.16
Востаннє: 16.12.17
Повідомлень: 1250

2017-08-06 19:31  
Дивергент / Divergent (2014) 720p 60fps Ukr/Eng | Transfer


Дивергент / Divergent (2014) 720p 60fps Ukr/Eng | Transfer

Жанр: фантастика, бойовик, пригодницький
Країна: США
Кінокомпанія: Summit Entertainment, Red Wagon Entertainment
Режисер: Ніл Бергер
Актори: Шейлін Вудлі, Тео Джеймс, Ешлі Джадд, Джей Кортні, Рей Стівенсон, Зої Кравіц, Майлз Теллер, Тоні Голдвін, Ансель Елгорт, Кейт Вінслет

Сюжет: Світ майбутнього, у ньому суспільство поділено на 5 фракцій, виходячи з рис людини: Щирість, Зречення, Безстрашність, Дружелюбність, Ерудиція. Досягнувши 16 років, кожен підліток проходить тест, яким визначається, у якій фракції людина перебуватиме до кінця свого життя. Беатріс Прайер — шістнадцятирічна дівчина з сім'ї Зречення не отримує остаточного результату, тому що вона є Дивергентом — людиною, що не може належати лише до однієї фракції. Влада міста вважає, що такі нестандартні, відмінні від інших, люди, становлять загрозу для вибудованої системи Фракцій. Дівчина робить вибір, який дивує всіх, в тому числі і її саму – обирає фракцію Безстрашних. Її життя змінюється остаточно і безповоротно. Тепер її основна мета – вижити, довести, що вона гідна бути Безстрашною. Кожен її день – це боротьба з іншими претендентами на ініціювання, але найголовніша битва, звичайно ж, з собою, зі своїми страхами.



Тривалість: 02:19:31
Якість:

Відео: кодек: розмір кадру: 1280 х 720 бітрейт: 5500 кб/с
Аудіо #1: мова: українська переклад: багатоголосий закадровий кодек: 2.0 бітрейт: 192 кб/с
Джерело озвучення:
Аудіо #2: мова: англійська переклад: оригінал кодек: 2.0 бітрейт: 192 кб/с
Про файл:
General
Unique ID : 237406608122212534534067779181512214350 (0xB29AD97C9EAC5C0EAC5AE41FE58BC74E)
Complete name : D:\Torrents\FILMS\Divergent.2014.720p..60fps.
Format :
Format version : Version 4 / Version 2
File size : 5.87 GiB
Duration : 2 h 19 min
Overall bit rate : 6 019 kb/s
Movie name : Divergent 2014 720p 60fps
Encoded date : UTC 2017-08-06 17:17:36
Writing application : mkvmerge v14.0.0 ('Flow') 64bit
Writing library : libebml v1.3.4 + libmatroska v1.4.5
Cover : Yes
Attachments : cover.jpeg

Video
ID : 1
Format : AVC
Format/Info : Advanced Video Codec
Format profile : [email protected]
Format settings, CABAC : Yes
Format settings, RefFrames : 6 frames
Codec ID : V_MPEG4/ISO/AVC
Duration : 2 h 19 min
Bit rate : 5 631 kb/s
Width : 1 280 pixels
Height : 720 pixels
Display aspect ratio : 16:9
Frame rate mode : Constant
Frame rate : 60.000 FPS
Color space : YUV
Chroma subsampling : 4:2:0
Bit depth : 8 bits
Scan type : Progressive
Bits/(Pixel*Frame) : 0.102
Stream size : 5.49 GiB (94%)
Title : Divergent 2014 720p 60fps
Writing library : core 125 r2208 d9d2288
Encoding settings : cabac=1 / ref=6 / deblock=0:0:0 / analyse=0x3:0x133 / me=umh / subme=8 / psy=1 / psy_rd=1.00:0.15 / mixed_ref=1 / me_range=20 / chroma_me=1 / trellis=2 / 8x8dct=1 / cqm=0 / deadzone=21,11 / fast_pskip=0 / chroma_qp_offset=-3 / threads=6 / lookahead_threads=1 / sliced_threads=0 / nr=0 / decimate=0 / interlaced=0 / bluray_compat=0 / constrained_intra=0 / bframes=7 / b_pyramid=2 / b_adapt=2 / b_bias=0 / direct=1 / weightb=1 / open_gop=0 / weightp=2 / keyint=600 / keyint_min=60 / scenecut=40 / intra_refresh=0 / rc=crf / mbtree=0 / crf=17.0 / qcomp=0.63 / qpmin=10 / qpmax=51 / qpstep=4 / ip_ratio=1.40 / pb_ratio=1.30 / aq=1:1.20
Language : English
Default : Yes
Forced : No

Audio #1
ID : 2
Format : AC-3
Format/Info : Audio Coding 3
Format settings, Endianness : Big
Codec ID : A_AC3
Duration : 2 h 19 min
Bit rate mode : Constant
Bit rate : 192 kb/s
Channel(s) : 2 channels
Channel positions : Front: L R
Sampling rate : 48.0 kHz
Frame rate : 31.250 FPS (1536 SPF)
Bit depth : 16 bits
Compression mode : Lossy
Delay relative to video : 38 ms
Stream size : 192 MiB (3%)
Title : MOV 2ch | Новий канал
Language : Ukrainian
Service kind : Complete Main
Default : Yes
Forced : Yes

Audio #2
ID : 3
Format : AC-3
Format/Info : Audio Coding 3
Format settings, Endianness : Big
Codec ID : A_AC3
Duration : 2 h 19 min
Bit rate mode : Constant
Bit rate : 192 kb/s
Channel(s) : 2 channels
Channel positions : Front: L R
Sampling rate : 48.0 kHz
Frame rate : 31.250 FPS (1536 SPF)
Bit depth : 16 bits
Compression mode : Lossy
Stream size : 192 MiB (3%)
Title : Original
Language : English
Service kind : Complete Main
Default : No
Forced : No
Скріншоти:


Дод.інформація: відео перекодовано з частотою кадрів 60 FPS і трансформованою картинкою
Зразок:

Origi -
Trans -
Origi -
Trans -
Запис: krigg070
Зведення: sergiyko



 Трекер:    Зареєстрований   

Завантажити / скачати фільм українською



відео для новачків



 Зареєстрований:   2017-08-06 19:31
 Розмір:   5.87 GB 
 Оцінка фільму:   8.8/10 (Голосів: 4)
   
Інші релізи
   Дивергент / Divergent (2014) Ukr/Eng Arsenfpu  12 / 0   2.41 GB   2017-08-06 20:54 
   Дивергент / Divergent (2014) 1080p Ukr/Eng | sub Ukr/Eng sergiyko.5  5 / 0   10.53 GB   2017-08-06 17:33 
   Дивергент / Divergent (2014) AVC sergiyko.5  12 / 0   1.46 GB   2017-08-06 17:20 
   Дивергент / Divergent (2014) 720p Ukr/Eng | sub Ukr/Eng sergiyko.5  4 / 0   7.34 GB   2017-08-06 17:17 
   Дивергент / Відмінна / Divergent (2014) Eng | sub Ukr ivan vyrvyvuho  19 / 0   2.12 GB   2014-08-13 17:28 
Loter 
Свій


З нами з: 17.04.09
Востаннє: 11.12.17
Повідомлень: 90

2017-08-07 13:03  
підкажіть, що значить "трасформована картинка"? в сусідньму релізі розширення 1280 х 534, тут обрізано зліва і справа, чи розтягнуто по вертикалі? чи щось інше? без чорних полос приємніше дивитися, але цікаво завдяки чому досягнуто цього результату
sergiyko.5 
Попереджень: 1
Попереджень: 1 


З нами з: 25.02.16
Востаннє: 16.12.17
Повідомлень: 1250

2017-08-07 19:13  
Loter
Є додаткова інформація, там під спойлером зразки кадрів, дивіться і вирішуйте, що для вас краще.

Ваш часовий пояс: GMT + 2 Години

Нова тема   Відповісти