Majesty Of Revival - Dualism (2016) [FLAC] | Neoclassical Power Metal / Progressive Metal

Нові коментарі

Нова тема   Відповісти
Автор Повідомлення
kolpavel 
VIP


З нами з: 04.05.14
Востаннє: 13.12.17
Повідомлень: 1158

2017-08-06 17:55  
Majesty Of Revival - Dualism (2016) [FLAC] | Neoclassical Power Metal / Progressive Metal

Majesty Of Revival - Dualism (2016) [FLAC] | Neoclassical Power Metal / Progressive Metal


Стиль: Neoclassical Power Metal Progressive Metal
Країна, місто: Україна, Ужгород
Видавець: More Hate Productions (MHP 16-189)
Виконавці:
DP - гiтара / вокал
Vasil - барабани
Tom - бас
Vladimir - клавишнi

Пісні:
    01. Deadlock - 06:57
    02. Awaken - 06:15
    03. Alive - 04:13
    04. Inner Dimension - 06:15
    05. Darkest - 04:05
    06. Failure - 04:34
    07. Days - 06:00
    08. Wolfheart - 04:38
    09. Tongue - 05:26
    10. Perfection - 03:27
    11. When The Night Embraces - 04:57
    12. Serenity - 04:53
    13. Dualism - 05:06
    14. Same Blood - 04:50
    15. Wolfheart Reprise - 04:32

Тривалість: 01:16:07
Мова: англiйська
Аудіо-кодек: FLAC
Бітрейт: 1025 кб/с
Джерело: трекер
Додаткова інформація:
EAC
Exact Audio Copy V1.1 from 23. June 2015

Отчёт EAC об извлечении, выполненном 30. июня 2017, 22:38

Majesty Of Revival / Dualism

Дисковод: ASUS DRW-24F1MT Adapter: 1 ID: 0

Режим чтения : Достоверность
Использование точного потока : Да
Отключение кэша аудио : Да
Использование указателей C2 : Нет

Коррекция смещения при чтении : 6
Способность читать области Lead-in и Lead-out : Нет
Заполнение пропущенных сэмплов тишиной : Да
Удаление блоков с тишиной в начале и конце : Нет
При вычислениях CRC использовались нулевые сэмплы : Да
Интерфейс : Встроенный Win32-интерфейс для Win NT/2000

Выходной формат : Пользовательский кодировщик
Выбранный битрейт : 1024 kBit/s
Качество : Высокий
Добавление ID3-тега : Нет
Утилита сжатия : C:\Program Files (x86)\Exact Audio Copy\Flac\flac.exe
Дополнительные параметры : -V -8 -T "Date=%year%" -T "Genre=%genre%" %source%

TOC извлечённого CD

Трек | Старт | Длительность | Начальный сектор | Конечный сектор
---------------------------------------------------------------------
1 | 0:00.00 | 6:56.66 | 0 | 31265
2 | 6:56.66 | 6:14.72 | 31266 | 59387
3 | 13:11.63 | 4:13.03 | 59388 | 78365
4 | 17:24.66 | 6:14.63 | 78366 | 106478
5 | 23:39.54 | 4:04.69 | 106479 | 124847
6 | 27:44.48 | 4:33.55 | 124848 | 145377
7 | 32:18.28 | 6:00.03 | 145378 | 172380
8 | 38:18.31 | 4:37.40 | 172381 | 193195
9 | 42:55.71 | 5:26.13 | 193196 | 217658
10 | 48:22.09 | 3:26.47 | 217659 | 233155
11 | 51:48.56 | 4:56.63 | 233156 | 255418
12 | 56:45.44 | 4:53.14 | 255419 | 277407
13 | 61:38.58 | 5:06.29 | 277408 | 300386
14 | 66:45.12 | 4:49.72 | 300387 | 322133
15 | 71:35.09 | 4:31.69 | 322134 | 342527

Характеристики диапазона извлечения и сообщения об ошибках

Выбранный диапазон

Имя файла G:\ВСЕ ЗАГРУЗКИ\sking\Majesty Of Revival - Dualism (2016)\Majesty Of Revival - Dualism.wav

Пиковый уровень 100.0 %
Скорость извлечения 3.4 X
Качество диапазона 100.0 %
CRC теста 70319C4C
CRC копии 70319C4C
Копирование... OK

Ошибок не произошло

AccurateRip: сводка

Трек 1 : извлечено точно (доверие 1) [FDB7949F] (AR v2)
Трек 2 : извлечено точно (доверие 1) [B4CE0544] (AR v2)
Трек 3 : извлечено точно (доверие 1) [E3A74A60] (AR v2)
Трек 4 : извлечено точно (доверие 1) [9F7B7664] (AR v2)
Трек 5 : извлечено точно (доверие 1) [68099E4D] (AR v2)
Трек 6 : извлечено точно (доверие 1) [A5FD0DC4] (AR v2)
Трек 7 : извлечено точно (доверие 1) [212FCC1E] (AR v2)
Трек 8 : извлечено точно (доверие 1) [B3B44746] (AR v2)
Трек 9 : извлечено точно (доверие 1) [EECFC85F] (AR v2)
Трек 10 : извлечено точно (доверие 1) [F819EDC4] (AR v2)
Трек 11 : извлечено точно (доверие 1) [C26AD7AE] (AR v2)
Трек 12 : извлечено точно (доверие 1) [7503A2A8] (AR v2)
Трек 13 : извлечено точно (доверие 1) [DB95B81A] (AR v2)
Трек 14 : извлечено точно (доверие 1) [E8B29F1D] (AR v2)
Трек 15 : извлечено точно (доверие 1) [0D31D084] (AR v2)

Все треки извлечены точно

Конец отчёта

---- CUETools DB Plugin V2.1.6

[CTDB TOCID: FqUewYuOeNwblZU3rBS885L7Acw-] found
Submit result: FqUewYuOeNwblZU3rBS885L7Acw- has been confirmed
Track | CTDB Status
1 | (2/2) Accurately ripped
2 | (2/2) Accurately ripped
3 | (2/2) Accurately ripped
4 | (2/2) Accurately ripped
5 | (2/2) Accurately ripped
6 | (2/2) Accurately ripped
7 | (2/2) Accurately ripped
8 | (2/2) Accurately ripped
9 | (2/2) Accurately ripped
10 | (2/2) Accurately ripped
11 | (2/2) Accurately ripped
12 | (2/2) Accurately ripped
13 | (2/2) Accurately ripped
14 | (2/2) Accurately ripped
15 | (2/2) Accurately ripped

==== Контрольная сумма отчёта 707F9CD659D72D6AC330C687541AE004F933ECACEA67EF587DDB530DBD929137 ====
(.CUE)
REM GENRE "Progressive Metal"
REM DATE 2016
REM DISCID BD11D70F
REM COMMENT "ExactAudioCopy v1.1"
PERFORMER "Majesty Of Revival"
TITLE "Dualism"
FILE "Majesty Of Revival - Dualism.flac" WAVE
TRACK 01 AUDIO
TITLE "Deadlock"
PERFORMER "Majesty Of Revival"
INDEX 01 00:00:00
TRACK 02 AUDIO
TITLE "Awaken"
PERFORMER "Majesty Of Revival"
INDEX 01 06:56:66
TRACK 03 AUDIO
TITLE "Alive"
PERFORMER "Majesty Of Revival"
INDEX 01 13:11:63
TRACK 04 AUDIO
TITLE "Inner Dimension"
PERFORMER "Majesty Of Revival"
INDEX 01 17:24:66
TRACK 05 AUDIO
TITLE "Darkest"
PERFORMER "Majesty Of Revival"
INDEX 01 23:39:54
TRACK 06 AUDIO
TITLE "Failure"
PERFORMER "Majesty Of Revival"
INDEX 01 27:44:48
TRACK 07 AUDIO
TITLE "Days"
PERFORMER "Majesty Of Revival"
INDEX 01 32:18:28
TRACK 08 AUDIO
TITLE "Wolfheart"
PERFORMER "Majesty Of Revival"
INDEX 01 38:18:31
TRACK 09 AUDIO
TITLE "Tongue"
PERFORMER "Majesty Of Revival"
INDEX 01 42:55:71
TRACK 10 AUDIO
TITLE "Perfection"
PERFORMER "Majesty Of Revival"
INDEX 01 48:22:09
TRACK 11 AUDIO
TITLE "When The Night Embrace"
PERFORMER "Majesty Of Revival"
INDEX 01 51:48:56
TRACK 12 AUDIO
TITLE "Serenity"
PERFORMER "Majesty Of Revival"
INDEX 01 56:45:44
TRACK 13 AUDIO
TITLE "Dualism"
PERFORMER "Majesty Of Revival"
INDEX 01 61:38:58
TRACK 14 AUDIO
TITLE "Same Blood"
PERFORMER "Majesty Of Revival"
INDEX 01 66:45:12
TRACK 15 AUDIO
TITLE "Wolfheart Reprise"
PERFORMER "Majesty Of Revival"
INDEX 01 71:35:09


Якщо Ви справді бажаєте підтримати українське - після прослуховування, якщо музика вам сподобалась, придбайте ліцензійний диск. Підтримаймо вітчизняних виконавців!


Срібний реліз (на рейтинг впливає 50% завантаженого)
 Трекер:    Зареєстрований   

Завантажити / скачати українську музику



відео для новачків



 Зареєстрований:   2017-08-06 17:55
 Розмір:   576 MB 
 Оцінка музики:   7/10 (Голосів: 3)
   
Ваш часовий пояс: GMT + 2 Години

Нова тема   Відповісти