Дивергент / Divergent (2014) 1080p Ukr/Eng | sub Ukr/Eng

Нові коментарі

Нова тема   Відповісти
Автор Повідомлення
sergiyko.5 
VIP


З нами з: 25.02.16
Востаннє: 18.08.17
Повідомлень: 986

2017-08-06 17:35  
Дивергент / Divergent (2014) 1080p Ukr/Eng | sub Ukr/Eng


Дивергент / Divergent (2014) 1080p Ukr/Eng | sub Ukr/Eng

Жанр: фантастика, бойовик, пригодницький
Країна: США
Кінокомпанія: Summit Entertainment, Red Wagon Entertainment
Режисер: Ніл Бергер
Актори: Шейлін Вудлі, Тео Джеймс, Ешлі Джадд, Джей Кортні, Рей Стівенсон, Зої Кравіц, Майлз Теллер, Тоні Голдвін, Ансель Елгорт, Кейт Вінслет

Сюжет: Світ майбутнього, у ньому суспільство поділено на 5 фракцій, виходячи з рис людини: Щирість, Зречення, Безстрашність, Дружелюбність, Ерудиція. Досягнувши 16 років, кожен підліток проходить тест, яким визначається, у якій фракції людина перебуватиме до кінця свого життя. Беатріс Прайер — шістнадцятирічна дівчина з сім'ї Зречення не отримує остаточного результату, тому що вона є Дивергентом — людиною, що не може належати лише до однієї фракції. Влада міста вважає, що такі нестандартні, відмінні від інших, люди, становлять загрозу для вибудованої системи Фракцій. Дівчина робить вибір, який дивує всіх, в тому числі і її саму – обирає фракцію Безстрашних. Її життя змінюється остаточно і безповоротно. Тепер її основна мета – вижити, довести, що вона гідна бути Безстрашною. Кожен її день – це боротьба з іншими претендентами на ініціювання, але найголовніша битва, звичайно ж, з собою, зі своїми страхами.



Тривалість: 02:19:40
Якість:

Відео: кодек: розмір кадру: 1920 х 800 бітрейт: 9770 кб/с
Аудіо #1: мова: українська переклад: багатоголосий закадровий кодек: 2.0 бітрейт: 192 кб/с
Джерело озвучення:
Аудіо #2: мова: англійська переклад: оригінал кодек: 5.1 бітрейт: 640 кб/с
Аудіо #3: мова: англійська переклад: коментар кодек: 2.0 бітрейт: 192 кб/с
Субтитри #1: мова: українська тип: програмні (м'які) формат: *.srt
Субтитри #2-4: мова: англійська тип: програмні (м'які) формат: *.srt
Про файл:
General
Unique ID : 225137456743059637442964583624885185701 (0xA95FE59ECECAD7858E397571A738ACA5)
Complete name : D:\Torrents\FILMS\Divergent.2014.1080p..Ukr.Eng.
Format :
Format version : Version 4 / Version 2
File size : 10.5 GiB
Duration : 2 h 19 min
Overall bit rate : 10.8 Mb/s
Movie name : Divergent 2014 1080p
Encoded date : UTC 2017-08-06 15:20:58
Writing application : mkvmerge v14.0.0 ('Flow') 64bit
Writing library : libebml v1.3.4 + libmatroska v1.4.5
Cover : Yes
Attachments : cover.jpeg

Video
ID : 1
Format : AVC
Format/Info : Advanced Video Codec
Format profile : [email protected]
Format settings, CABAC : Yes
Format settings, RefFrames : 5 frames
Codec ID : V_MPEG4/ISO/AVC
Duration : 2 h 19 min
Bit rate : 9 770 kb/s
Width : 1 920 pixels
Height : 800 pixels
Display aspect ratio : 2.40:1
Frame rate mode : Constant
Frame rate : 23.976 FPS
Color space : YUV
Chroma subsampling : 4:2:0
Bit depth : 8 bits
Scan type : Progressive
Bits/(Pixel*Frame) : 0.265
Stream size : 9.53 GiB (90%)
Title : Divergent 2014 1080p
Writing library : core 138 r2356 a1d3d17
Encoding settings : cabac=1 / ref=5 / deblock=1:-3:-3 / analyse=0x3:0x113 / me=umh / subme=10 / psy=1 / psy_rd=1.00:0.05 / mixed_ref=1 / me_range=32 / chroma_me=1 / trellis=2 / 8x8dct=1 / cqm=0 / deadzone=21,11 / fast_pskip=0 / chroma_qp_offset=-2 / threads=18 / lookahead_threads=1 / sliced_threads=0 / nr=0 / decimate=1 / interlaced=0 / bluray_compat=0 / constrained_intra=0 / bframes=4 / b_pyramid=2 / b_adapt=2 / b_bias=0 / direct=3 / weightb=1 / open_gop=0 / weightp=2 / keyint=250 / keyint_min=23 / scenecut=40 / intra_refresh=0 / rc=2pass / mbtree=0 / bitrate=9770 / ratetol=1.0 / qcomp=0.70 / qpmin=0 / qpmax=69 / qpstep=4 / cplxblur=20.0 / qblur=0.5 / ip_ratio=1.40 / pb_ratio=1.30 / aq=2:1.00
Language : English
Default : Yes
Forced : No

Audio #1
ID : 2
Format : AC-3
Format/Info : Audio Coding 3
Format settings, Endianness : Big
Codec ID : A_AC3
Duration : 2 h 19 min
Bit rate mode : Constant
Bit rate : 192 kb/s
Channel(s) : 2 channels
Channel positions : Front: L R
Sampling rate : 48.0 kHz
Frame rate : 31.250 FPS (1536 SPF)
Bit depth : 16 bits
Compression mode : Lossy
Stream size : 192 MiB (2%)
Title : MOV 2ch | Новий канал
Language : Ukrainian
Service kind : Complete Main
Default : Yes
Forced : Yes

Audio #2
ID : 3
Format : AC-3
Format/Info : Audio Coding 3
Format settings, Endianness : Big
Codec ID : A_AC3
Duration : 2 h 19 min
Bit rate mode : Constant
Bit rate : 640 kb/s
Channel(s) : 6 channels
Channel positions : Front: L C R, Side: L R, LFE
Sampling rate : 48.0 kHz
Frame rate : 31.250 FPS (1536 SPF)
Bit depth : 16 bits
Compression mode : Lossy
Stream size : 639 MiB (6%)
Title : Original
Language : English
Service kind : Complete Main
Default : No
Forced : No

Audio #3
ID : 4
Format : AC-3
Format/Info : Audio Coding 3
Format settings, Endianness : Big
Codec ID : A_AC3
Duration : 2 h 19 min
Bit rate mode : Constant
Bit rate : 192 kb/s
Channel(s) : 2 channels
Channel positions : Front: L R
Sampling rate : 48.0 kHz
Frame rate : 31.250 FPS (1536 SPF)
Bit depth : 16 bits
Compression mode : Lossy
Stream size : 192 MiB (2%)
Title : Commentary #1
Language : English
Service kind : Complete Main
Default : No
Forced : No

Text #1
ID : 5
Format : UTF-8
Codec ID : S_TEXT/UTF8
Codec ID/Info : UTF-8 Plain Text
Duration : 2 h 11 min
Bit rate : 63 b/s
Count of elements : 1375
Stream size : 61.1 KiB (0%)
Title : Sub
Language : Ukrainian
Default : No
Forced : No

Text #2
ID : 6
Format : UTF-8
Codec ID : S_TEXT/UTF8
Codec ID/Info : UTF-8 Plain Text
Duration : 2 h 9 min
Bit rate : 38 b/s
Count of elements : 1321
Stream size : 36.2 KiB (0%)
Title : Full
Language : English
Default : No
Forced : No

Text #3
ID : 7
Format : UTF-8
Codec ID : S_TEXT/UTF8
Codec ID/Info : UTF-8 Plain Text
Duration : 2 h 9 min
Bit rate : 44 b/s
Count of elements : 1572
Stream size : 41.9 KiB (0%)
Title : SDH
Language : English
Default : No
Forced : No

Text #4
ID : 8
Format : UTF-8
Codec ID : S_TEXT/UTF8
Codec ID/Info : UTF-8 Plain Text
Duration : 2 h 9 min
Bit rate : 59 b/s
Count of elements : 1650
Stream size : 56.3 KiB (0%)
Title : SDH-COLORED
Language : English
Default : No
Forced : No

Menu
00:00:00.000 : en:00:00:00.000
00:07:57.475 : en:00:07:57.475
00:15:29.595 : en:00:15:29.595
00:23:31.034 : en:00:23:31.034
00:33:56.616 : en:00:33:56.616
00:38:52.954 : en:00:38:52.954
00:44:24.327 : en:00:44:24.327
00:53:37.505 : en:00:53:37.505
01:00:02.681 : en:01:00:02.681
01:06:32.070 : en:01:06:32.070
01:13:19.603 : en:01:13:19.603
01:20:08.136 : en:01:20:08.136
01:28:41.439 : en:01:28:41.439
01:35:54.957 : en:01:35:54.957
01:46:19.372 : en:01:46:19.372
01:57:54.692 : en:01:57:54.692
Скріншоти:


Запис: Bohdan237
Зведення: sergiyko
Субтитри: ivan vyrvyvuho



 Трекер:    Зареєстрований   

Завантажити / скачати фільм українською



відео для новачків



 Зареєстрований:   2017-08-06 18:33
 Розмір:   10.53 GB 
 Оцінка фільму:   8.3/10 (Голосів: 4)
   
Інші релізи
   Дивергент / Divergent (2014) Ukr/Eng Arsenfpu  9 / 2   2.41 GB   2017-08-06 21:54 
   Дивергент / Divergent (2014) 720p 60fps Ukr/Eng | Transfer sergiyko.5  4 / 0   5.87 GB   2017-08-06 20:31 
   Дивергент / Divergent (2014) AVC sergiyko.5  15 / 0   1.46 GB   2017-08-06 18:20 
   Дивергент / Divergent (2014) 720p Ukr/Eng | sub Ukr/Eng sergiyko.5  7 / 0   7.34 GB   2017-08-06 18:17 
   Дивергент / Відмінна / Divergent (2014) Eng | sub Ukr ivan vyrvyvuho  17 / 0   2.12 GB   2014-08-13 18:28 
bot 
робот


З нами з: 30.09.07
Востаннє: 26.05.05
Повідомлень: 17363

2017-08-06 17:35  
Тему перенесено з Фільми в HD до форуму Анонси релізів


sergiyko.5

bot 
робот


З нами з: 30.09.07
Востаннє: 26.05.05
Повідомлень: 17363

2017-08-06 18:33  
Тему перенесено з Анонси релізів до форуму Фільми в HD


sergiyko.5

Ваш часовий пояс: GMT + 2 Години

Нова тема   Відповісти