Дивергент / Divergent (2014) AVC

Нові коментарі

Нова тема   Відповісти
Автор Повідомлення
sergiyko.5 
VIP


З нами з: 25.02.16
Востаннє: 16.08.17
Повідомлень: 986

2017-08-06 16:16  
Дивергент / Divergent (2014) AVC


Дивергент / Divergent (2014) AVC

Жанр: фантастика, бойовик, пригодницький
Країна: США
Кінокомпанія: Summit Entertainment, Red Wagon Entertainment
Режисер: Ніл Бергер
Актори: Шейлін Вудлі, Тео Джеймс, Ешлі Джадд, Джей Кортні, Рей Стівенсон, Зої Кравіц, Майлз Теллер, Тоні Голдвін, Ансель Елгорт, Кейт Вінслет

Сюжет: Світ майбутнього, у ньому суспільство поділено на 5 фракцій, виходячи з рис людини: Щирість, Зречення, Безстрашність, Дружелюбність, Ерудиція. Досягнувши 16 років, кожен підліток проходить тест, яким визначається, у якій фракції людина перебуватиме до кінця свого життя. Беатріс Прайер — шістнадцятирічна дівчина з сім'ї Зречення не отримує остаточного результату, тому що вона є Дивергентом — людиною, що не може належати лише до однієї фракції. Влада міста вважає, що такі нестандартні, відмінні від інших, люди, становлять загрозу для вибудованої системи Фракцій. Дівчина робить вибір, який дивує всіх, в тому числі і її саму – обирає фракцію Безстрашних. Її життя змінюється остаточно і безповоротно. Тепер її основна мета – вижити, довести, що вона гідна бути Безстрашною. Кожен її день – це боротьба з іншими претендентами на ініціювання, але найголовніша битва, звичайно ж, з собою, зі своїми страхами.



Тривалість: 02:19:40
Якість:

Відео: кодек: розмір кадру: 960 х 400 бітрейт: 1300 кб/с
Аудіо: мова: українська переклад: багатоголосий закадровий кодек: 2.0 бітрейт: 192 кб/с
Джерело озвучення:
Субтитри #1: мова: українська тип: програмні (м'які) формат: *.srt
Субтитри #2,3: мова: англійська тип: програмні (м'які) формат: *.srt
Про файл:
General
Unique ID : 210679194849833123468315895204002586035 (0x9E7F5645C47FA2EDBAF620E46F82DDB3)
Complete name : D:\Torrents\FILMS\Divergent.2014..
Format :
Format version : Version 4 / Version 2
File size : 1.46 GiB
Duration : 2 h 19 min
Overall bit rate : 1 497 kb/s
Movie name : Divergent (2014)
Encoded date : UTC 2017-08-06 15:11:49
Writing application : mkvmerge v14.0.0 ('Flow') 64bit
Writing library : libebml v1.3.4 + libmatroska v1.4.5
Cover : Yes
Attachments : cover.jpeg

Video
ID : 1
Format : AVC
Format/Info : Advanced Video Codec
Format profile : [email protected]
Format settings, CABAC : Yes
Format settings, RefFrames : 12 frames
Codec ID : V_MPEG4/ISO/AVC
Duration : 2 h 19 min
Bit rate : 1 307 kb/s
Width : 960 pixels
Height : 400 pixels
Display aspect ratio : 2.40:1
Frame rate mode : Constant
Frame rate : 23.976 FPS
Color space : YUV
Chroma subsampling : 4:2:0
Bit depth : 8 bits
Scan type : Progressive
Bits/(Pixel*Frame) : 0.142
Stream size : 1.27 GiB (87%)
Title : Divergent 2014
Writing library : core 130 r2273 b3065e6
Encoding settings : cabac=1 / ref=12 / deblock=1:-2:-2 / analyse=0x3:0x133 / me=umh / subme=11 / psy=1 / psy_rd=1.00:0.00 / mixed_ref=1 / me_range=48 / chroma_me=1 / trellis=2 / 8x8dct=1 / cqm=0 / deadzone=21,11 / fast_pskip=0 / chroma_qp_offset=-2 / threads=9 / lookahead_threads=6 / sliced_threads=0 / nr=0 / decimate=0 / interlaced=0 / bluray_compat=0 / constrained_intra=0 / bframes=13 / b_pyramid=2 / b_adapt=2 / b_bias=0 / direct=3 / weightb=1 / open_gop=0 / weightp=2 / keyint=250 / keyint_min=23 / scenecut=40 / intra_refresh=0 / rc=2pass / mbtree=0 / bitrate=1307 / ratetol=1.0 / qcomp=0.70 / qpmin=0 / qpmax=69 / qpstep=4 / cplxblur=20.0 / qblur=0.5 / ip_ratio=1.35 / pb_ratio=1.25 / aq=2:0.90
Language : English
Default : Yes
Forced : No

Audio
ID : 2
Format : AC-3
Format/Info : Audio Coding 3
Format settings, Endianness : Big
Codec ID : A_AC3
Duration : 2 h 19 min
Bit rate mode : Constant
Bit rate : 192 kb/s
Channel(s) : 2 channels
Channel positions : Front: L R
Sampling rate : 48.0 kHz
Frame rate : 31.250 FPS (1536 SPF)
Bit depth : 16 bits
Compression mode : Lossy
Stream size : 192 MiB (13%)
Title : MOV 2ch | Новий канал
Language : Ukrainian
Service kind : Complete Main
Default : Yes
Forced : Yes

Text #1
ID : 3
Format : UTF-8
Codec ID : S_TEXT/UTF8
Codec ID/Info : UTF-8 Plain Text
Duration : 2 h 11 min
Bit rate : 63 b/s
Count of elements : 1375
Stream size : 61.1 KiB (0%)
Title : Sub
Language : Ukrainian
Default : No
Forced : No

Text #2
ID : 4
Format : UTF-8
Codec ID : S_TEXT/UTF8
Codec ID/Info : UTF-8 Plain Text
Duration : 2 h 9 min
Bit rate : 38 b/s
Count of elements : 1397
Stream size : 36.0 KiB (0%)
Language : English
Default : No
Forced : No

Text #3
ID : 5
Format : UTF-8
Codec ID : S_TEXT/UTF8
Codec ID/Info : UTF-8 Plain Text
Duration : 2 h 9 min
Bit rate : 44 b/s
Count of elements : 1572
Stream size : 41.9 KiB (0%)
Title : SDH
Language : English
Default : No
Forced : No

Menu
00:00:00.000 : en:Chapter 1
00:07:57.477 : en:Chapter 2
00:15:29.595 : en:Chapter 3
00:23:31.035 : en:Chapter 4
00:33:56.618 : en:Chapter 5
00:38:52.956 : en:Chapter 6
00:44:24.328 : en:Chapter 7
00:53:37.506 : en:Chapter 8
01:00:02.682 : en:Chapter 9
01:06:32.071 : en:Chapter 10
01:13:19.603 : en:Chapter 11
01:20:08.137 : en:Chapter 12
01:28:41.441 : en:Chapter 13
01:35:54.957 : en:Chapter 14
01:46:19.373 : en:Chapter 15
01:57:54.692 : en:Chapter 16
Скріншоти:


Запис: Bohdan237
Зведення: sergiyko
Субтитри: ivan vyrvyvuho



 Трекер:    Зареєстрований   

Завантажити / скачати фільм українською



відео для новачків



 Зареєстрований:   2017-08-06 18:20
 Розмір:   1.46 GB 
 Оцінка фільму:   8/10 (Голосів: 8)
   
Інші релізи
   Дивергент / Divergent (2014) Ukr/Eng Arsenfpu  12 / 1   2.41 GB   2017-08-06 21:54 
   Дивергент / Divergent (2014) 720p 60fps Ukr/Eng | Transfer sergiyko.5  3 / 1   5.87 GB   2017-08-06 20:31 
   Дивергент / Divergent (2014) 1080p Ukr/Eng | sub Ukr/Eng sergiyko.5  13 / 0   10.53 GB   2017-08-06 18:33 
   Дивергент / Divergent (2014) 720p Ukr/Eng | sub Ukr/Eng sergiyko.5  7 / 0   7.34 GB   2017-08-06 18:17 
   Дивергент / Відмінна / Divergent (2014) Eng | sub Ukr ivan vyrvyvuho  21 / 0   2.12 GB   2014-08-13 18:28 
[Captain] 
VIP


З нами з: 19.02.12
Востаннє: 16.08.17
Повідомлень: 1724

2017-08-06 16:23  
А раніше Новий транслював з рос
Це квоти діють?

1009 
VIP


З нами з: 02.09.14
Востаннє: 16.08.17
Повідомлень: 254

2017-08-06 17:21  
А хтось знає чи буде 4 частина Дивергента
[Captain] 
VIP


З нами з: 19.02.12
Востаннє: 16.08.17
Повідомлень: 1724

2017-08-06 17:24  
1009
Ні, знімуть серіал-продовження, радше за все з іншими акторами

sergiyko.5 
VIP


З нами з: 25.02.16
Востаннє: 16.08.17
Повідомлень: 986

2017-08-06 18:20  
Торент оновлено, українська доріжка тепер кращої якості.
don pedro 
Попереджень: 1
Попереджень: 1 


З нами з: 29.06.11
Востаннє: 16.08.17
Повідомлень: 10027

2017-08-06 18:27  
У кінотеатрі був дубляж, а тут ні. Та добро і те.
Ваш часовий пояс: GMT + 2 Години

Нова тема   Відповісти