Бетмен: Рік Перший / Batman: Year One (2011) 1080p Ukr/Eng | Sub Ukr

Нові коментарі

Нова тема   Відповісти
Автор Повідомлення
sergiyko.5 
VIP


З нами з: 25.02.16
Востаннє: 17.08.17
Повідомлень: 987

2017-08-05 19:47  
Бетмен: Рік Перший / Batman: Year One (2011) 1080p Ukr/Eng | Sub Ukr

Бетмен: Рік Перший / Batman: Year One (2011) 1080p Ukr/Eng | Sub Ukr

Жанр: анімація, екшн, кримінальний
Країна: США
Кінокомпанія: Warner Premiere, DC Entertainment, Warner Bros. Animation
Режисер: Сем Лью, Лоурен Монтгомері
Актори: Браян Кренстон, Бен МакКензі, Елайза Душку та інші

Сюжет:
Історія становлення героя в масці летючої миші. Молодим Брюс Уейн на шляху боротьби зі злочинністю зазнає невдач, паралельно вибудовуючи робочі взаємини з детективом Джеймсом Гордоном. Останній, до речі, не просто грає провідну роль доброчесного копа, але ще й живе особистим життям, до якого належить і романтична прив'язка до колеги по роботі Сари Ессен. А в цей час Селена Кайл змінює своє життя, починаючи безпосередньо з власної особистості.




Тривалість: 01:04:08
Якість:

Відео: кодек: розмір кадру: 1920 х 1072 бітрейт: 7800 кб/с
Аудіо # 1: мова: українська переклад: багатоголосий закадровий кодек: 2.0 бітрейт: 192 кб/с Джерело озвучення:
Аудіо # 2: мова: англійська переклад: оригінал кодек: 5.1 бітрейт: 448 кб/с
Субтитри: мова: англійська тип: програмні (м'які) формат: *.srt
Info
General
Unique ID : 210899854849604893405926487308045305332 (0x9EA9D5A685B0CCCFAD6166126E46C5F4)
Complete name : D:\Torrents\MULT\Batman.Year.One.2011..1080p.Ukr.Eng.
Format :
Format version : Version 4 / Version 2
File size : 3.78 GiB
Duration : 1 h 4 min
Overall bit rate : 8 442 kb/s
Movie name : Бетмен: Рік Перший Batman: Year One 2011 by sergiyko
Encoded date : UTC 2017-08-05 16:39:31
Writing application : mkvmerge v14.0.0 ('Flow') 64bit
Writing library : libebml v1.3.4 + libmatroska v1.4.5
Cover : Yes
Attachments : cover.jpeg

Video
ID : 1
Format : AVC
Format/Info : Advanced Video Codec
Format profile : [email protected]
Format settings, CABAC : Yes
Format settings, RefFrames : 4 frames
Codec ID : V_MPEG4/ISO/AVC
Duration : 1 h 4 min
Bit rate : 7 802 kb/s
Width : 1 920 pixels
Height : 1 072 pixels
Display aspect ratio : 16:9
Frame rate mode : Constant
Frame rate : 23.976 (24000/1001) FPS
Color space : YUV
Chroma subsampling : 4:2:0
Bit depth : 8 bits
Scan type : Progressive
Bits/(Pixel*Frame) : 0.158
Stream size : 3.50 GiB (92%)
Title : Бетмен: Рік Перший Batman: Year One 2011
Writing library : core 116 r2074 2641b9e
Encoding settings : cabac=1 / ref=4 / deblock=1:1:1 / analyse=0x3:0x113 / me=umh / subme=9 / psy=1 / psy_rd=0.40:0.00 / mixed_ref=1 / me_range=32 / chroma_me=1 / trellis=1 / 8x8dct=1 / cqm=0 / deadzone=21,11 / fast_pskip=0 / chroma_qp_offset=-2 / threads=6 / sliced_threads=0 / nr=0 / decimate=1 / interlaced=0 / bluray_compat=0 / constrained_intra=0 / bframes=6 / b_pyramid=2 / b_adapt=2 / b_bias=0 / direct=3 / weightb=1 / open_gop=0 / weightp=2 / keyint=250 / keyint_min=23 / scenecut=40 / intra_refresh=0 / rc_lookahead=50 / rc=2pass / mbtree=1 / bitrate=7802 / ratetol=1.0 / qcomp=0.60 / qpmin=0 / qpmax=69 / qpstep=4 / cplxblur=20.0 / qblur=0.5 / ip_ratio=1.40 / aq=1:0.60
Language : English
Default : Yes
Forced : No

Audio #1
ID : 2
Format : AC-3
Format/Info : Audio Coding 3
Format settings, Endianness : Big
Codec ID : A_AC3
Duration : 1 h 4 min
Bit rate mode : Constant
Bit rate : 192 kb/s
Channel(s) : 2 channels
Channel positions : Front: L R
Sampling rate : 48.0 kHz
Frame rate : 31.250 FPS (1536 SPF)
Bit depth : 16 bits
Compression mode : Lossy
Delay relative to video : 32 ms
Stream size : 88.1 MiB (2%)
Title : MOV 2ch | ICTV
Language : Ukrainian
Service kind : Complete Main
Default : Yes
Forced : Yes

Audio #2
ID : 3
Format : AC-3
Format/Info : Audio Coding 3
Format settings, Endianness : Big
Codec ID : A_AC3
Duration : 1 h 4 min
Bit rate mode : Constant
Bit rate : 448 kb/s
Channel(s) : 6 channels
Channel positions : Front: L C R, Side: L R, LFE
Sampling rate : 48.0 kHz
Frame rate : 31.250 FPS (1536 SPF)
Bit depth : 16 bits
Compression mode : Lossy
Stream size : 206 MiB (5%)
Title : Original
Language : English
Service kind : Complete Main
Default : No
Forced : No

Text
ID : 4
Format : UTF-8
Codec ID : S_TEXT/UTF8
Codec ID/Info : UTF-8 Plain Text
Duration : 59 min 56 s
Bit rate : 53 b/s
Count of elements : 707
Stream size : 23.7 KiB (0%)
Title : Eng
Language : English
Default : No
Forced : No

Menu
00:00:00.000 : :Розділ 01
00:01:51.153 : :Розділ 02
00:09:41.331 : :Розділ 03
00:18:57.011 : :Розділ 04
00:27:09.837 : :Розділ 05
00:39:44.465 : :Розділ 06
00:49:16.328 : :Розділ 07
00:59:46.041 : :Розділ 08
01:00:39.052 : :Розділ 09
Скріншоти:


 Трекер:    Зареєстрований   

Завантажити / скачати мультфільм українською



відео для новачків



 Зареєстрований:   2017-08-05 19:47
 Розмір:   3.78 GB 
 Оцінка мультфільму:   10/10 (Голосів: 5)
   
Інші релізи
   Бетмен: Рік Перший / Batman: Year One (2011) Ukr/Eng krigg070  11 / 0   1.17 GB   2016-12-09 02:09 
Ваш часовий пояс: GMT + 2 Години

Нова тема   Відповісти