Мертвий космос: Наслідки / Dead Space: Aftermath (2011) 720р

Нові коментарі

Нова тема   Відповісти
Автор Повідомлення
Anonymous 







2017-08-04 17:38  
Мертвий космос: Наслідки / Dead Space: Aftermath (2011) 720р

Мертвий космос: Наслідки / Dead Space: Aftermath (2011) 720р


Жанр: жахи, наукова фантастика
Країна: США

Кіностудія / кінокомпанія: Electronic Arts, Film Roman
Режисер: Майк Діса
Актори: Крістофер Джадж, Рікардо Чавіра, Ґвердолін Єо та ін.

Сюжет:
Події відбуваються поміж першою та другою частинами оригінальної гри Dead Space.
Після вибуху космічного корабля USG Ishimura, земля надсилає корабель USG O'Bannon для розслідування, але контакт із ними також втрачається....


Тривалість: 01:17:44
Якість:
кодек:
розмір кадру: 1280x528
бітрейт: ~4238 кб/с

Аудіо:
мова: українська
переклад: багатоголосий закадровий
кодек: 5.1
бітрейт: 448 кб/с
Звіт Info
[size=9]General
Unique ID : 181517317870211471738018115560486786454 (0x888EF6BB03A02979A3E368622560D596)
Complete name : S:\Files\Video\Dead Space - Aftermath (2011).
Format :
Format version : Version 4 / Version 2
File size : 2.54 GiB
Duration : 1 h 17 min
Overall bit rate : 4 687 kb/s
Encoded date : UTC 2017-08-03 21:56:20
Writing application : mkvmerge v9.4.0 ('Knurl') 64bit
Writing library : libebml v1.3.4 + libmatroska v1.4.5
Cover : Yes
Attachments : Cover.jpg

Video
ID : 1
Format : AVC
Format/Info : Advanced Video Codec
Format profile : [email protected]
Format settings, CABAC : Yes
Format settings, ReFrames : 5 frames
Codec ID : V_MPEG4/ISO/AVC
Duration : 1 h 17 min
Bit rate : 4 238 kb/s
Width : 1 280 pixels
Height : 528 pixels
Display aspect ratio : 2.40:1
Frame rate mode : Constant
Frame rate : 23.976 (24000/1001) FPS
Original frame rate : 23.976 (23976/1000) FPS
Color space : YUV
Chroma subsampling : 4:2:0
Bit depth : 8 bits
Scan type : Progressive
Bits/(Pixel*Frame) : 0.262
Stream size : 2.30 GiB (90%)
Writing library : core 112 r1867 22bfd31
Encoding settings : cabac=1 / ref=5 / deblock=1:0:0 / analyse=0x3:0x133 / me=umh / subme=7 / psy=1 / psy_rd=1.00:0.00 / mixed_ref=1 / me_range=16 / chroma_me=1 / trellis=1 / 8x8dct=1 / cqm=0 / deadzone=21,11 / fast_pskip=0 / chroma_qp_offset=-2 / threads=12 / sliced_threads=0 / nr=0 / decimate=1 / interlaced=0 / constrained_intra=0 / bframes=3 / b_pyramid=2 / b_adapt=1 / b_bias=0 / direct=1 / weightb=1 / open_gop=0 / weightp=2 / keyint=250 / keyint_min=23 / scenecut=40 / intra_refresh=0 / rc_lookahead=40 / rc=2pass / mbtree=1 / bitrate=4238 / ratetol=1.0 / qcomp=0.60 / qpmin=0 / qpmax=51 / qpstep=4 / cplxblur=20.0 / qblur=0.5 / ip_ratio=1.40 / aq=1:1.00
Language : English
Default : No
Forced : No

Audio
ID : 2
Format : AC-3
Format/Info : Audio Coding 3
Mode extension : CM (complete main)
Format settings, Endianness : Big
Codec ID : A_AC3
Duration : 1 h 17 min
Bit rate mode : Constant
Bit rate : 448 kb/s
Channel(s) : 6 channels
Channel positions : Front: L C R, Side: L R, LFE
Sampling rate : 48.0 kHz
Frame rate : 31.250 FPS (1536 spf)
Compression mode : Lossy
Stream size : 249 MiB (10%)
Title : FanVoxUA
Language : Ukrainian
Default : Yes
Forced : No
Скріншоти







Переклад: Stravenger
Редакція: Snovyda
Ролі озвучили: MariAm, AdrianZP, Surgeon, Crupt, Alfa-Bell, BaRMaN, Rendaros, Snovyda, Lorelin, Esme, Mister Gumka, pad0n, Helga Victim
Робота зі звуком та відео: AdrianZP
Постер: Лунсар

Джерело:

Особиста оцінка: 10 - без зайвих вагань рекомендую всім!


Авторський реліз (завантажувати можна без реєстрації)
 Трекер:    Зареєстрований   

Завантажити / скачати мультфільм українською



відео для новачків



 Зареєстрований:   2017-08-04 17:38
 Розмір:   2.54 GB 
 Оцінка мультфільму:   4.9/10 (Голосів: 20)
   
Oleksa9 
Поважний учасник


З нами з: 17.05.12
Востаннє: 22.08.17
Повідомлень: 241

2017-08-04 20:59  
Перша частина забавки найкраща, друга легша, а третьої немає на Steam )). Ну, а відео це обов'язкове для перегляду тим кому подобається DEAD SPACE!!!!
Gespenst 
VIP


З нами з: 30.09.09
Востаннє: 23.08.17
Повідомлень: 253

2017-08-04 21:32  
рідкісна нудота.

Додано через 4 хвилини 15 секунд:

Oleksa9 написано:
Oleksa9

сходив за вашим посиланням http://ridna.com/mova.php і отримав . Ви або хрестика зніміть або труси вдягніть.

Oleksa9 
Поважний учасник


З нами з: 17.05.12
Востаннє: 22.08.17
Повідомлень: 241

2017-08-04 21:54  
Бога нема (с), а от майтки на місці.
AdrianZP 
Частий відвідувач


З нами з: 28.08.14
Востаннє: 20.08.17
Повідомлень: 30

2017-08-05 23:38  
Скажу так, якщо ви бавилися в оригінальну серію ігор, то цей мульт просто обов'язковий до перегляду, оскільки він неймовірно доповнює сюжетну складову гри. Для всіх інший це "проходняк", бо банально нічого не зрозумієте та будете плюватися, що це шлак. І це логічно, бо треба бути в темі.

Кому цікаво, плюси та мінуси:

Ваш часовий пояс: GMT + 2 Години

Нова тема   Відповісти