Чужі на районі (Чужинці на районі) / Attack the Block (2011) Remux 1080p 2xUkr/Eng | Sub Eng

Нові коментарі

Нова тема   Відповісти
Автор Повідомлення
IronBee 
Свій


З нами з: 08.02.10
Востаннє: 18.08.17
Повідомлень: 62

2017-08-03 20:43  
Чужі на районі (Чужинці на районі) / Attack the Block (2011) Remux 1080p 2xUkr/Eng | Sub Eng

Чужі на районі (Чужинці на районі) / Attack the Block (2011) Remux 1080p 2xUkr/Eng | Sub Eng


Жанр: фантастика, бойовик, комедія
Країна: Велика Британія, Франція



Кінокомпанія: Studio Canal, Film4, UK Film Council
Режисер: Джо Корніш
Актори: Джон Бойеґа, Джоді Уітаккер, Алекс Есмейл, Нік Фрост, Наташа Джонас...

Сюжет:
Малолітні хулігани вже було зібралися по дорослому пограбувати медсестру, коли їх увага перемкнулася на казна-звідки прилетівшого інопланетянина, що приземлився майже на голову юним розбійникам. Пристукнувши злобного прибульця, герої фільму незабаром розуміють, що святкувати перемогу ще рано. Їх район став місцем висадки цілого загону кровожерливих позаземних істот і озброївшись до зубів бітами і ключками, хлопці приготувалися «радо» зустріти непрошених гостей.


Тривалість: 01:27:44
Якість: Remux
Відео:
кодек:
розмір кадру: 1920х 1080
бітрейт: 27.0 Mб/с

Аудіо # 1:
мова: українська (1+1)
переклад: багатоголосий закадровий
кодек: 2.0
бітрейт: 192 кб/с

Аудіо # 2:
мова: українська (K1)
переклад: багатоголосий закадровий
кодек: 2.0
бітрейт: 192 кб/с

Аудіо # 3:
мова: англійська
переклад: оригінал
кодек: 5.1
бітрейт: 2135 кб/с

Субтитри:
мова: англійська
тип: програмні (м'які)
формат: srt
Info
General
Unique ID : 178846747729454189085622955169987169843 (0x868CA174F47EBA4494656CBA10680E33)
Complete name : E:\Films\Чужі на районі Attack the Block (2011) Remux 1080p UkrEng[Hurtom].
Format :
Format version : Version 4 / Version 2
File size : 18.1 GiB
Duration : 1 h 27 min
Overall bit rate mode : Variable
Overall bit rate : 29.5 Mb/s
Movie name : Release for RuTracker
Encoded date : UTC 2017-08-03 15:34:17
Writing application : mkvmerge v14.0.0 ('Flow') 64bit
Writing library : libebml v1.3.4 + libmatroska v1.4.5
Cover : Yes
Attachments : cover.jpg

Video
ID : 1
Format : AVC
Format/Info : Advanced Video Codec
Format profile : [email protected]
Format settings, CABAC : Yes
Format settings, ReFrames : 4 frames
Format settings, GOP : M=3, N=24
Codec ID : V_MPEG4/ISO/AVC
Duration : 1 h 27 min
Bit rate mode : Variable
Bit rate : 27.0 Mb/s
Maximum bit rate : 39.0 Mb/s
Width : 1 920 pixels
Height : 1 080 pixels
Display aspect ratio : 16:9
Frame rate mode : Constant
Frame rate : 24.000 FPS
Standard : NTSC
Color space : YUV
Chroma subsampling : 4:2:0
Bit depth : 8 bits
Scan type : Progressive
Bits/(Pixel*Frame) : 0.542
Stream size : 16.5 GiB (91%)
Language : English
Default : Yes
Forced : No
Color range : Limited
Color primaries : BT.709
Transfer characteristics : BT.709
Matrix coefficients : BT.709

Audio #1
ID : 2
Format : AC-3
Format/Info : Audio Coding 3
Mode extension : CM (complete main)
Format settings, Endianness : Big
Codec ID : A_AC3
Duration : 1 h 27 min
Bit rate mode : Constant
Bit rate : 192 kb/s
Channel(s) : 2 channels
Channel positions : Front: L R
Sampling rate : 48.0 kHz
Frame rate : 31.250 FPS (1536 spf)
Bit depth : 16 bits
Compression mode : Lossy
Stream size : 120 MiB (1%)
Language : Ukrainian
Default : Yes
Forced : No

Audio #2
ID : 3
Format : AC-3
Format/Info : Audio Coding 3
Mode extension : CM (complete main)
Format settings, Endianness : Big
Codec ID : A_AC3
Duration : 1 h 27 min
Bit rate mode : Constant
Bit rate : 192 kb/s
Channel(s) : 2 channels
Channel positions : Front: L R
Sampling rate : 48.0 kHz
Frame rate : 31.250 FPS (1536 spf)
Bit depth : 16 bits
Compression mode : Lossy
Stream size : 120 MiB (1%)
Language : Ukrainian
Default : No
Forced : No

Audio #3
ID : 4
Format :
Format/Info : Digital Theater Systems
Format profile : MA / Core
Mode : 16
Format settings, Endianness : Big
Codec ID : A_DTS
Duration : 1 h 27 min
Bit rate mode : Variable / Constant
Bit rate : 2 153 kb/s / 1 509 kb/s
Channel(s) : 6 channels
Channel positions : Front: L C R, Side: L R, LFE
Sampling rate : 48.0 kHz
Frame rate : 93.750 FPS (512 spf)
Bit depth : 16 bits
Compression mode : Lossless / Lossy
Stream size : 1.32 GiB (7%)
Language : English
Default : No
Forced : No

Text
ID : 5
Format : UTF-8
Codec ID : S_TEXT/UTF8
Codec ID/Info : UTF-8 Plain Text
Duration : 1 h 20 min
Bit rate : 58 b/s
Count of elements : 963
Stream size : 34.4 KiB (0%)
Language : English
Default : No
Forced : No

Menu
00:00:00.000 : en:01 The Wrong Place
00:08:12.708 : en:02 Beast Of Brixton
00:16:05.250 : en:03 Let's Get Tooled Up
00:21:54.125 : en:04 Triple The Size
00:29:45.541 : en:05 This Is Sick
00:37:39.000 : en:06 Too Much Madness
00:41:27.583 : en:07 What's Wrong With The Area
00:50:21.250 : en:08 Actions Have Consequences
01:00:51.333 : en:09 Fire In The Hold
01:06:26.958 : en:10 Maybe It's A What Now?
01:13:33.125 : en:11 Allow It
01:20:06.041 : en:12 Moses Is A Legend
Скріншоти





За відео та першу доріжку дякую п. patriot2305, sando7
За запис з К1 дякую пану РОМЕО

Джерело: &
Особиста оцінка: 8 - мені сподобалося


Золотий реліз (завантажене не впливає на рейтинг)
 Трекер:    Зареєстрований   

Завантажити / скачати фільм українською



відео для новачків



 Зареєстрований:   2017-08-03 20:43
 Розмір:   18.1 GB 
 Оцінка фільму:   1.5/10 (Голосів: 11)
   
Інші релізи
Ваш часовий пояс: GMT + 2 Години

Нова тема   Відповісти