Час скажених псів / The Hunter's Prayer (2017) 1080p Ukr/Eng | Sub Eng

Нові коментарі

Нова тема   Відповісти
Автор Повідомлення
sergiyko.5 
VIP


З нами з: 25.02.16
Востаннє: 22.08.17
Повідомлень: 1004

2017-08-02 11:30  
Час скажених псів / The Hunter's Prayer (2017) 1080p Ukr/Eng | Sub Eng

Час скажених псів / The Hunter's Prayer (2017) 1080p Ukr/Eng | Sub Eng

Жанр: бойовик, трилер
Країна: США, Іспанія, Німеччина
Кінокомпанія: Apollo Media
Режисер: Джонатан Мостоу
Актори: Одея Раш, Сем Уортінгтон, Мартін Компстон, Вероніка Ечегі, Емі Ландекер

Сюжет:
У центрі сюжету – дівчина на ім'я Елла (Одея Раш). Всіх членів її сім'ї, яка володіє чималими статками, одного за іншим вбивають. Тепер вона – єдина спадкоємиця. Кілер, що прийшов її вбити (Сем Уортінгтон), замість того, щоб виконати своє завдання, береться допомагати дівчині. Тепер в небезпеці не тільки життя самої Елли, а і його власне. Протистояти самотужки тим, хто його найняв, не так вже й просто. Особливо з урахуванням суми грошей, яка стоїть на кону.

Фільм «Час скажених псів» спільного виробництва США, Великобританії, Італії та Німеччини знято на основі роману «Собачий спадок» письменника Кевіна Вінгала. Режисуру довірили Джонатану Мостоу («Ю-571», «Аварія», продюсер фільму «Гра»). Головну жіночу роль виконала актриса з Ізраїлю Одея Раш («Дивне життя Тімоті Гріна»). Зйомки картини почалися 12 серпня 2014 року в Великобританії і проходили в Швейцарії, Нью-Йорку, Німеччині, Іспанії та Угорщині.


Вікові обмеження: 18+



Тривалість: 01:31:15
Якість:

Відео: кодек: розмір кадру: 1920x808 бітрейт: 8800 кб/с
Аудіо # 1: мова: українська переклад: багатоголосий закадровий кодек: 2.0 бітрейт: 192 кб/с | MEGOGO | Tretyakoff production
Аудіо # 2: мова: англійська переклад: оригінал кодек: 5.1 бітрейт: 640 кб/с
Субтитри: мова: англійська тип: програмні (м'які) формат: *.srt
Info
General
Unique ID : 248318033763698686185236399703833505566 (0xBAD0504E5C4BAFFD97E85AE46E04EF1E)
Complete name : D:\Torrents\FILMS\The Hunter's Prayer.2017..1080p.Ukr.Eng.
Format :
Format version : Version 4 / Version 2
File size : 6.12 GiB
Duration : 1 h 31 min
Overall bit rate : 9 607 kb/s
Movie name : The Hunter's Prayer 2017 1080p
Encoded date : UTC 2017-08-02 08:23:53
Writing application : mkvmerge v14.0.0 ('Flow') 64bit
Writing library : libebml v1.3.4 + libmatroska v1.4.5
Cover : Yes
Attachments : cover.jpeg

Video
ID : 1
Format : AVC
Format/Info : Advanced Video Codec
Format profile : [email protected]
Format settings, CABAC : Yes
Format settings, ReFrames : 5 frames
Codec ID : V_MPEG4/ISO/AVC
Duration : 1 h 31 min
Bit rate : 8 778 kb/s
Width : 1 920 pixels
Height : 808 pixels
Display aspect ratio : 2.40:1
Frame rate mode : Constant
Frame rate : 23.976 FPS
Color space : YUV
Chroma subsampling : 4:2:0
Bit depth : 8 bits
Scan type : Progressive
Bits/(Pixel*Frame) : 0.236
Stream size : 5.59 GiB (91%)
Title : The Hunter's Prayer 2017 1080p
Writing library : core 150 r2833 df79067
Encoding settings : cabac=1 / ref=5 / deblock=1:0:0 / analyse=0x3:0x133 / me=umh / subme=7 / psy=1 / psy_rd=1.00:0.00 / mixed_ref=1 / me_range=16 / chroma_me=1 / trellis=1 / 8x8dct=1 / cqm=0 / deadzone=21,11 / fast_pskip=0 / chroma_qp_offset=-2 / threads=24 / lookahead_threads=4 / sliced_threads=0 / nr=0 / decimate=1 / interlaced=0 / bluray_compat=0 / constrained_intra=0 / bframes=3 / b_pyramid=2 / b_adapt=1 / b_bias=0 / direct=1 / weightb=1 / open_gop=0 / weightp=2 / keyint=250 / keyint_min=23 / scenecut=40 / intra_refresh=0 / rc_lookahead=40 / rc=2pass / mbtree=1 / bitrate=8778 / ratetol=1.0 / qcomp=0.60 / qpmin=0 / qpmax=69 / qpstep=4 / cplxblur=20.0 / qblur=0.5 / ip_ratio=1.40 / aq=1:1.00
Language : English
Default : Yes
Forced : No

Audio #1
ID : 2
Format : AC-3
Format/Info : Audio Coding 3
Format settings, Endianness : Big
Codec ID : A_AC3
Duration : 1 h 31 min
Bit rate mode : Constant
Bit rate : 192 kb/s
Channel(s) : 2 channels
Channel positions : Front: L R
Sampling rate : 48.0 kHz
Frame rate : 31.250 FPS (1536 spf)
Bit depth : 16 bits
Compression mode : Lossy
Stream size : 125 MiB (2%)
Title : MOV 2.0ch
Language : Ukrainian
Service kind : Complete Main
Default : Yes
Forced : Yes

Audio #2
ID : 3
Format : AC-3
Format/Info : Audio Coding 3
Format settings, Endianness : Big
Codec ID : A_AC3
Duration : 1 h 31 min
Bit rate mode : Constant
Bit rate : 640 kb/s
Channel(s) : 6 channels
Channel positions : Front: L C R, Side: L R, LFE
Sampling rate : 48.0 kHz
Frame rate : 31.250 FPS (1536 spf)
Bit depth : 16 bits
Compression mode : Lossy
Stream size : 418 MiB (7%)
Title : Original
Language : English
Service kind : Complete Main
Default : No
Forced : No

Text
ID : 4
Format : UTF-8
Codec ID : S_TEXT/UTF8
Codec ID/Info : UTF-8 Plain Text
Duration : 1 h 22 min
Bit rate : 49 b/s
Count of elements : 773
Stream size : 30.2 KiB (0%)
Title : Colored SDH
Language : English
Default : No
Forced : No

Menu
00:00:00.000 : en:00:00:00.000
00:05:06.389 : en:00:05:06.389
00:11:49.542 : en:00:11:49.542
00:18:17.221 : en:00:18:17.221
00:24:50.114 : en:00:24:50.114
00:27:47.499 : en:00:27:47.499
00:34:19.683 : en:00:34:19.683
00:39:41.754 : en:00:39:41.754
00:45:37.193 : en:00:45:37.193
00:51:45.561 : en:00:51:45.561
00:57:32.115 : en:00:57:32.115
01:03:03.780 : en:01:03:03.780
01:09:21.407 : en:01:09:21.407
01:14:11.197 : en:01:14:11.197
01:20:17.479 : en:01:20:17.479
01:23:53.028 : en:01:23:53.028
Скріншоти:


Підтримати купівлю інших фільмів можна тут.


 Трекер:    Зареєстрований   

Завантажити / скачати фільм українською



відео для новачків



 Зареєстрований:   2017-08-02 11:30
 Розмір:   6.12 GB 
 Оцінка фільму:   7/10 (Голосів: 5)
   
Інші релізи
mrsdoubtfire 
Свій


З нами з: 22.10.15
Востаннє: 21.08.17
Повідомлень: 71

2017-08-02 14:45  
Єдине, чого не вистачає цьому фільму, це бути Аватаром 2.
kkostiki 
Частий відвідувач


З нами з: 06.09.10
Востаннє: 22.08.17
Повідомлень: 25

2017-08-07 21:18  
щось з звуком не те...
дублюється часто спецефекти через декілька секунд

Ваш часовий пояс: GMT + 2 Години

Нова тема   Відповісти