Повітряний маршал / Non-Stop (2014) Remux 1080p 2xUkr/Eng | Sub Eng

Нові коментарі

Нова тема   Відповісти
Останній раз роздавалося PipOK1985 (2017-12-15)
Автор Повідомлення
IronBee 
Свій


З нами з: 08.02.10
Востаннє: 15.12.17
Повідомлень: 87

2017-07-31 17:21  
Повітряний маршал / Non-Stop (2014) Remux 1080p 2xUkr/Eng | Sub Eng

Повітряний маршал / Non-Stop (2014) Remux 1080p 2xUkr/Eng | Sub Eng


Жанр: екшн, детектив, трилер
Країна: Велика Британія, Франція, США



Кінокомпанія: StudioCanal, Silver Pictures, Anton Capital Entertainment, LOVEFiLM International, TF1 Films International
Режисер: Джаум Коллет-Серра / Jaume Collet-Serra
Актори: Ліам Нісон / Liam Neeson, Джуліанна Мур / Julianne Moore, Скут МакНейрі / Scoot McNairy, Нейт Паркер / Nate Parker, Корі Столл / Corey Stoll, Люпіта Ніонґо / Lupita Nyong'o та інші

Сюжет:
Міжконтинентальний авіарейс. Білл Маркс, повітряний маршал, який забезпечує безпеку пасажирів, отримує повідомлення з погрозами від маньяка-терориста. Злочинець прорахував всі ходи і підставив під звинувачення самого спецагента. Тепер Маркс - мета спецслужб США. Йому залишається одне: прорахувати і знешкодити злочинця, врятувати пасажирів і своє кохання, яке він знаходить на краю загибелі. До вибуху залишаються лічені хвилини...


Тривалість: 01:46:37
Якість: Remux
Відео:
кодек:
розмір кадру: 1920 х 1080
бітрейт: 31,9 Mб/с

Аудіо # 1:Джерело озвучення:
мова: українська
переклад: багатоголосий закадровий
кодек: 2.0
бітрейт: 192 кб/с

Аудіо # 2:
мова: українська | Mic (якісний)
переклад: професійний дубльований
кодек: 2.0
бітрейт: 192 кб/с

Аудіо # 3:
мова: англійська
переклад: оригінал
кодек: 5.1
бітрейт: 1509 кб/с

Аудіо # 4:
мова: англійська (Descriptive)
переклад: оригінал
кодек: 2.0
бітрейт: 192 кб/с

Субтитри # 1-2:
мова: англійська (повні, SDH)
тип: програмні (м'які)
формат: *.srt
Info
General
Unique ID : 173959280293120691712559086935016267454 (0x82DF56B52D9368D299040CF16834DEBE)
Complete name : D:\Films\Повітряний маршал Non-Stop (2014) 1080p 2xUkrEng Sub Eng[Hurtom].
Format :
Format version : Version 4 / Version 2
File size : 27.2 GiB
Duration : 1 h 46 min
Overall bit rate mode : Variable
Overall bit rate : 36.6 Mb/s
Encoded date : UTC 2017-07-30 20:06:25
Writing application : mkvmerge v14.0.0 ('Flow') 64bit
Writing library : libebml v1.3.4 + libmatroska v1.4.5

Video
ID : 1
Format : AVC
Format/Info : Advanced Video Codec
Format profile : [email protected]
Format settings, CABAC : Yes
Format settings, ReFrames : 4 frames
Codec ID : V_MPEG4/ISO/AVC
Duration : 1 h 46 min
Bit rate mode : Variable
Bit rate : 31.9 Mb/s
Maximum bit rate : 35.0 Mb/s
Width : 1 920 pixels
Height : 1 080 pixels
Display aspect ratio : 16:9
Frame rate mode : Constant
Frame rate : 23.976 (24000/1001) FPS
Color space : YUV
Chroma subsampling : 4:2:0
Bit depth : 8 bits
Scan type : Progressive
Bits/(Pixel*Frame) : 0.642
Stream size : 23.8 GiB (87%)
Language : English
Default : No
Forced : No

Audio #1
ID : 2
Format : AC-3
Format/Info : Audio Coding 3
Mode extension : CM (complete main)
Format settings, Endianness : Big
Codec ID : A_AC3
Duration : 1 h 46 min
Bit rate mode : Constant
Bit rate : 192 kb/s
Channel(s) : 2 channels
Channel positions : Front: L R
Sampling rate : 48.0 kHz
Frame rate : 31.250 FPS (1536 spf)
Bit depth : 16 bits
Compression mode : Lossy
Stream size : 146 MiB (1%)
Language : Ukrainian
Default : Yes
Forced : No

Audio #2
ID : 3
Format : AC-3
Format/Info : Audio Coding 3
Mode extension : CM (complete main)
Format settings, Endianness : Big
Codec ID : A_AC3
Duration : 1 h 46 min
Bit rate mode : Constant
Bit rate : 192 kb/s
Channel(s) : 2 channels
Channel positions : Front: L R
Sampling rate : 48.0 kHz
Frame rate : 31.250 FPS (1536 spf)
Bit depth : 16 bits
Compression mode : Lossy
Stream size : 146 MiB (1%)
Language : Ukrainian
Default : No
Forced : No

Audio #3
ID : 4
Format :
Format/Info : Digital Theater Systems
Format profile : MA / Core
Mode : 16
Format settings, Endianness : Big
Codec ID : A_DTS
Duration : 1 h 46 min
Bit rate mode : Variable / Constant
Bit rate : 4 081 kb/s / 1 509 kb/s
Channel(s) : 6 channels
Channel positions : Front: L C R, Side: L R, LFE
Sampling rate : 48.0 kHz
Frame rate : 93.750 FPS (512 spf)
Bit depth : 24 bits
Compression mode : Lossless / Lossy
Stream size : 3.04 GiB (11%)
Language : English
Default : No
Forced : No

Audio #4
ID : 5
Format : AC-3
Format/Info : Audio Coding 3
Format profile : Dolby Digital
Mode extension : CM (complete main)
Format settings, Endianness : Big
Codec ID : A_AC3
Duration : 1 h 46 min
Bit rate mode : Constant
Bit rate : 192 kb/s
Channel(s) : 2 channels
Channel positions : Front: L R
Sampling rate : 48.0 kHz
Frame rate : 31.250 FPS (1536 spf)
Bit depth : 16 bits
Compression mode : Lossy
Stream size : 146 MiB (1%)
Title : Descriptive
Language : English
Default : No
Forced : No

Text #1
ID : 6
Format : UTF-8
Codec ID : S_TEXT/UTF8
Codec ID/Info : UTF-8 Plain Text
Duration : 1 h 38 min
Bit rate : 70 b/s
Count of elements : 1472
Stream size : 50.5 KiB (0%)
Language : English
Default : No
Forced : No

Text #2
ID : 7
Format : UTF-8
Codec ID : S_TEXT/UTF8
Codec ID/Info : UTF-8 Plain Text
Duration : 1 h 38 min
Bit rate : 71 b/s
Count of elements : 1510
Stream size : 51.6 KiB (0%)
Title : SDH
Language : English
Default : No
Forced : No

Menu
00:00:00.000 : en:Chapter 1
00:04:24.639 : en:Chapter 2
00:10:29.045 : en:Chapter 3
00:14:47.053 : en:Chapter 4
00:18:51.839 : en:Chapter 5
00:24:22.127 : en:Chapter 6
00:29:44.574 : en:Chapter 7
00:35:48.605 : en:Chapter 8
00:39:28.491 : en:Chapter 9
00:45:41.572 : en:Chapter 10
00:49:03.941 : en:Chapter 11
00:55:17.731 : en:Chapter 12
01:01:59.257 : en:Chapter 13
01:08:42.327 : en:Chapter 14
01:12:16.999 : en:Chapter 15
01:18:14.982 : en:Chapter 16
01:26:02.032 : en:Chapter 17
01:30:46.191 : en:Chapter 18
01:36:14.727 : en:Chapter 19
01:40:13.799 : en:Chapter 20
Скріншоти




Подяка пану slavik_v_z за запис звуку з ТБ, за синхронізацію пану Gelios, за надану доріжку №2 подяка пану patriot2305

Джерело: &
Особиста оцінка: 10 - без зайвих вагань рекомендую всім!


Золотий реліз (завантажене не впливає на рейтинг)
 Трекер:    Зареєстрований   

Завантажити / скачати фільм українською



відео для новачків



 Зареєстрований:   2017-07-31 17:21
 Розмір:   27.24 GB 
 Оцінка фільму:   9.7/10 (Голосів: 10)
   
Інші релізи
   Повітряний маршал / Non-Stop (2014) 2xUkr patriot2305  8 / 0   1.45 GB   2015-05-13 07:29 
   Повітряний маршал / Non-Stop (2014) 1080p 2xUkr/Eng | Sub Eng 11FrYkT  1 / 0   9.77 GB   2015-05-12 06:21 
   Повітряний маршал / Non-Stop (2014) 720p 2xUkr/Eng | Sub Eng 11FrYkT  8 / 0   4.49 GB   2015-05-12 06:18 
   Повітряний маршал / Non-Stop (2014) AVC Gelios  7 / 0   1.46 GB   2015-05-11 08:20 
kryk-v.ya. 
Поважний учасник


З нами з: 14.02.14
Востаннє: 15.12.17
Повідомлень: 239

2017-08-02 16:45  
В заголовку написано BD-REMUX,а в назві торенту 1080p,як це зрозуміти?це ріп чи це ремукс,бо такий ріп вже є,тільки важить менше...
igor911 
Відео Гуртом
Відео Гуртом


З нами з: 18.01.08
Востаннє: 15.12.17
Повідомлень: 8503

2017-08-02 17:08  
kryk-v.ya., в назві торента та файла помилка, тут ремукс.
kryk-v.ya. 
Поважний учасник


З нами з: 14.02.14
Востаннє: 15.12.17
Повідомлень: 239

2017-08-03 12:03  
igor911 написано:
в назві торента та файла помилка, тут ремукс.

я зрозумів що то ремукс...це я так легко натякнув,щоб виправити помилку.

igor911 
Відео Гуртом
Відео Гуртом


З нами з: 18.01.08
Востаннє: 15.12.17
Повідомлень: 8503

2017-08-03 12:05  
kryk-v.ya. написано:
щоб виправити помилку

пізно...після виправлення буде "мертвий" реліз без сідів...

Морж 
Частий відвідувач


З нами з: 23.01.09
Востаннє: 11.12.17
Повідомлень: 43

2017-08-13 11:16  
Прикольний фільм.
mv26 
Новенький


З нами з: 11.09.13
Востаннє: 12.12.17
Повідомлень: 9

2017-08-31 00:20  
Цікавий фільм, дякую.
Ваш часовий пояс: GMT + 2 Години

Нова тема   Відповісти