Парк Юрського періоду. Трилогія + Створення Парку юрського періоду / Jurassic Park. Trilogy + The Making of 'Jurassic Park' (1993-2001) 720p/ 3xUkr/Eng

Нові коментарі

Нова тема   Відповісти
Автор Повідомлення
Anonymous 







2017-07-31 17:13  
Парк Юрського періоду. Трилогія + Створення Парку юрського періоду / Jurassic Park. Trilogy + The Making of 'Jurassic Park' (1993-2001) 720p/ 3xUkr/Eng

Парк Юрського періоду. Трилогія + Створення Парку юрського періоду / Jurassic Park. Trilogy + The Making of 'Jurassic Park' (1993-2001) 720p/ 3xUkr/Eng


Жанр: пригодницький, фантастика, сімейний, трилер
Країна: США
Парк Юрського періоду / Jurassic Park (1993) 720p 3xUkr/Eng
Парк Юрського періоду / Jurassic Park (1993) 720p 3xUkr/Eng



Країна: США



Кінокомпанія: Universal Pictures
Режисер: Стівен Спілберг
Актори: Сем Нілл, Лора Дерн, Річард Еттенборо, Джефф Голдблюм, Боб Пек, Мартін Ферреро

Сюжет:
Професор вмовляє вчених-палеонтологів приїхати на острів біля узбережжя Коста-Ріки, де він влаштував своєрідний парк. В цьому парку водяться древні тварини — динозаври, які, за його задумом, і мають стати основою програми нового атракціону. До відкриття залишаються лічені дні, а один з працівників, намагаючись продати ембріони на стороні, порушує систему охорони. Це, в комплексі з грозою призведе до того, що доісторичні тварини опиняються на волі, де діють згідно своїх інстиктів.


Тривалість: 02:06:37
Відео:
кодек:
розмір кадру: 1280х688
бітрейт: 4188 кб/с

Аудіо # 1:
мова: українська
переклад: двоголосий закадровий Новий Канал
кодек: 2.0
бітрейт: 192 кб/с

Аудіо # 2:
мова: українська
переклад: двоголосий закадровий 1+1, ICTV, УКРАЇНА
кодек: 2.0
бітрейт: 192 кб/с

Аудіо # 3:
мова: українська
переклад: багатоголосий закадровий ІНТЕР
кодек: 2.0
бітрейт: 192 кб/с

Аудіо # 4:
мова: англійська
переклад: оригінал
кодек: 5.1
бітрейт: 448 кб/с
Info
General
Unique ID : 195222034162758470707540842092534503616 (0x92DE65696B66A5A4B971B3908E0518C0)
Complete name : E:\Jurassic Park Trilogy\Jurassic.Park.1993..720p.
Format :
Format version : Version 4 / Version 2
File size : 4.61 GiB
Duration : 2h 6mn
Overall bit rate : 5 213 Kbps
Encoded date : UTC 2017-05-31 14:56:25
Writing application : mkvmerge v8.8.0 ('Wind at my back') 64bit
Writing library : libebml v1.3.3 + libmatroska v1.4.4
DURATION : 02:06:36.576000000
NUMBER_OF_FRAMES : 237393
NUMBER_OF_BYTES : 182317824
_STATISTICS_WRITING_APP : mkvmerge v8.8.0 ('Wind at my back') 64bit
_STATISTICS_WRITING_DATE_UTC : 2017-05-31 14:56:25
_STATISTICS_TAGS : BPS DURATION NUMBER_OF_FRAMES NUMBER_OF_BYTES

Video
ID : 1
Format : AVC
Format/Info : Advanced Video Codec
Format profile : [email protected]
Format settings, CABAC : Yes
Format settings, ReFrames : 6 frames
Codec ID : V_MPEG4/ISO/AVC
Duration : 2h 6mn
Bit rate : 4 188 Kbps
Width : 1 280 pixels
Height : 688 pixels
Display aspect ratio : 1.85:1
Frame rate mode : Constant
Frame rate : 23.976 fps
Color space : YUV
Chroma subsampling : 4:2:0
Bit depth : 8 bits
Scan type : Progressive
Bits/(Pixel*Frame) : 0.198
Stream size : 3.61 GiB (78%)
Title : Jurassic Park By 3Li
Writing library : core 116 r2074 2641b9e
Encoding settings : cabac=1 / ref=6 / deblock=1:-3:-3 / analyse=0x3:0x113 / me=umh / subme=9 / psy=1 / psy_rd=0.60:0.00 / mixed_ref=1 / me_range=32 / chroma_me=1 / trellis=1 / 8x8dct=1 / cqm=0 / deadzone=21,11 / fast_pskip=0 / chroma_qp_offset=-2 / threads=3 / sliced_threads=0 / nr=0 / decimate=0 / interlaced=0 / bluray_compat=0 / constrained_intra=0 / bframes=3 / b_pyramid=2 / b_adapt=2 / b_bias=0 / direct=1 / weightb=1 / open_gop=0 / weightp=2 / keyint=250 / keyint_min=23 / scenecut=40 / intra_refresh=0 / rc_lookahead=40 / rc=2pass / mbtree=1 / bitrate=4188 / ratetol=1.0 / qcomp=0.60 / qpmin=10 / qpmax=51 / qpstep=4 / cplxblur=20.0 / qblur=0.5 / ip_ratio=1.40 / aq=1:1.00
Language : English
Default : Yes
Forced : No

Audio #1
ID : 2
Format : AC-3
Format/Info : Audio Coding 3
Mode extension : CM (complete main)
Format settings, Endianness : Big
Codec ID : A_AC3
Duration : 2h 6mn
Bit rate mode : Constant
Bit rate : 192 Kbps
Channel(s) : 2 channels
Channel positions : Front: L R
Sampling rate : 48.0 KHz
Bit depth : 16 bits
Compression mode : Lossy
Stream size : 174 MiB (4%)
Default : Yes
Forced : Yes

Audio #2
ID : 3
Format : AC-3
Format/Info : Audio Coding 3
Mode extension : CM (complete main)
Format settings, Endianness : Big
Codec ID : A_AC3
Duration : 2h 6mn
Bit rate mode : Constant
Bit rate : 192 Kbps
Channel(s) : 2 channels
Channel positions : Front: L R
Sampling rate : 48.0 KHz
Bit depth : 16 bits
Compression mode : Lossy
Stream size : 174 MiB (4%)
Default : No
Forced : No

Audio #3
ID : 4
Format : AC-3
Format/Info : Audio Coding 3
Mode extension : CM (complete main)
Format settings, Endianness : Big
Codec ID : A_AC3
Duration : 2h 6mn
Bit rate mode : Constant
Bit rate : 192 Kbps
Channel(s) : 2 channels
Channel positions : Front: L R
Sampling rate : 48.0 KHz
Bit depth : 16 bits
Compression mode : Lossy
Stream size : 174 MiB (4%)
Default : No
Forced : No

Audio #4
ID : 5
Format : AC-3
Format/Info : Audio Coding 3
Mode extension : CM (complete main)
Format settings, Endianness : Big
Codec ID : A_AC3
Duration : 2h 6mn
Bit rate mode : Constant
Bit rate : 448 Kbps
Channel(s) : 6 channels
Channel positions : Front: L C R, Side: L R, LFE
Sampling rate : 48.0 KHz
Bit depth : 16 bits
Compression mode : Lossy
Stream size : 406 MiB (9%)
Title : 5.1 @ 448 kbps
Language : English
Default : No
Forced : No
Скріншоти



Парк Юрського періоду 2. Загублений світ / The Lost World: Jurassic Park (1997) 3xUkr/Eng
Парк Юрського періоду 2. Загублений світ / The Lost World: Jurassic Park (1997) 3xUkr/Eng



Країна: США



Кінокомпанія: Universal Pictures
Режисер: Стівен Спілберг
Актори: Джеф Ґолдблюм, Джуліана Мур, Вінс Воун, Пете Постлетвейт, Ванеса Лі Честер, Арліс Говард, Річард Аттенборо

Сюжет:
Події цієї стрічки розгортаються через чотири роки після подій перщої частини. На острові Isla Sorna, що знаходився біля Isla Nublar, динозаври вижили й звісно ж знайшлася людина, яка мала плани щодо перевезення динозаврів на материк, і не усвідомлювала наслідків безглуздого задуму...


Тривалість: 02:08:40
Якість:
Відео:
кодек:
розмір кадру: 1280x688
бітрейт: 4110 кб/с

Аудіо # 1:
мова: українська
переклад: багатоголосий закадровий УКРАЇНА
кодек: 2.0
бітрейт: 192 кб/с

Аудіо # 2:
мова: українська
переклад: двоголосий закадровий НОВИЙ КАНАЛ
кодек: 2.0
бітрейт: 192 кб/с

Аудіо # 3:
мова: українська
переклад: двоголосий закадровий 1+1, ICTV
кодек: 2.0
бітрейт: 192 кб/с

Аудіо # 4:
мова: англійська
переклад: оригінал
кодек: 5.1
бітрейт: 448 кб/с
Info
General
Unique ID : 246935770307693067851542585393332828959 (0xB9C61974BDF34B89ABBBF652A0373B1F)
Complete name : E:\Jurassic Park Trilogy\The.Lost.World.Jurassic.Park.1997..720p.
Format :
Format version : Version 4 / Version 2
File size : 4.62 GiB
Duration : 2h 8mn
Overall bit rate : 5 136 Kbps
Encoded date : UTC 2017-05-31 15:08:30
Writing application : mkvmerge v8.8.0 ('Wind at my back') 64bit
Writing library : libebml v1.3.3 + libmatroska v1.4.4
DURATION : 02:08:39.264000000
NUMBER_OF_FRAMES : 241227
NUMBER_OF_BYTES : 185262336
_STATISTICS_WRITING_APP : mkvmerge v8.8.0 ('Wind at my back') 64bit
_STATISTICS_WRITING_DATE_UTC : 2017-05-31 15:08:30
_STATISTICS_TAGS : BPS DURATION NUMBER_OF_FRAMES NUMBER_OF_BYTES

Video
ID : 1
Format : AVC
Format/Info : Advanced Video Codec
Format profile : [email protected]
Format settings, CABAC : Yes
Format settings, ReFrames : 6 frames
Codec ID : V_MPEG4/ISO/AVC
Duration : 2h 8mn
Bit rate : 4 110 Kbps
Width : 1 280 pixels
Height : 688 pixels
Display aspect ratio : 1.85:1
Frame rate mode : Constant
Frame rate : 23.976 fps
Color space : YUV
Chroma subsampling : 4:2:0
Bit depth : 8 bits
Scan type : Progressive
Bits/(Pixel*Frame) : 0.195
Stream size : 3.60 GiB (78%)
Title : The Lost World Jurassic Park By 3Li
Writing library : core 116 r2074 2641b9e
Encoding settings : cabac=1 / ref=6 / deblock=1:-3:-3 / analyse=0x3:0x113 / me=umh / subme=9 / psy=1 / psy_rd=0.80:0.00 / mixed_ref=1 / me_range=32 / chroma_me=1 / trellis=1 / 8x8dct=1 / cqm=0 / deadzone=21,11 / fast_pskip=0 / chroma_qp_offset=-2 / threads=3 / sliced_threads=0 / nr=0 / decimate=0 / interlaced=0 / bluray_compat=0 / constrained_intra=0 / bframes=3 / b_pyramid=2 / b_adapt=2 / b_bias=0 / direct=1 / weightb=1 / open_gop=0 / weightp=2 / keyint=250 / keyint_min=23 / scenecut=40 / intra_refresh=0 / rc_lookahead=40 / rc=2pass / mbtree=1 / bitrate=4110 / ratetol=1.0 / qcomp=0.60 / qpmin=10 / qpmax=51 / qpstep=4 / cplxblur=20.0 / qblur=0.5 / ip_ratio=1.40 / aq=1:1.00
Language : English
Default : Yes
Forced : No

Audio #1
ID : 2
Format : AC-3
Format/Info : Audio Coding 3
Mode extension : CM (complete main)
Format settings, Endianness : Big
Codec ID : A_AC3
Duration : 2h 8mn
Bit rate mode : Constant
Bit rate : 192 Kbps
Channel(s) : 2 channels
Channel positions : Front: L R
Sampling rate : 48.0 KHz
Bit depth : 16 bits
Compression mode : Lossy
Stream size : 177 MiB (4%)
Default : Yes
Forced : Yes

Audio #2
ID : 3
Format : AC-3
Format/Info : Audio Coding 3
Mode extension : CM (complete main)
Format settings, Endianness : Big
Codec ID : A_AC3
Duration : 2h 8mn
Bit rate mode : Constant
Bit rate : 192 Kbps
Channel(s) : 2 channels
Channel positions : Front: L R
Sampling rate : 48.0 KHz
Bit depth : 16 bits
Compression mode : Lossy
Stream size : 177 MiB (4%)
Default : No
Forced : No

Audio #3
ID : 4
Format : AC-3
Format/Info : Audio Coding 3
Mode extension : CM (complete main)
Format settings, Endianness : Big
Codec ID : A_AC3
Duration : 2h 8mn
Bit rate mode : Constant
Bit rate : 192 Kbps
Channel(s) : 2 channels
Channel positions : Front: L R
Sampling rate : 48.0 KHz
Bit depth : 16 bits
Compression mode : Lossy
Stream size : 177 MiB (4%)
Default : No
Forced : No

Audio #4
ID : 5
Format : AC-3
Format/Info : Audio Coding 3
Mode extension : CM (complete main)
Format settings, Endianness : Big
Codec ID : A_AC3
Duration : 2h 8mn
Bit rate mode : Constant
Bit rate : 448 Kbps
Channel(s) : 6 channels
Channel positions : Front: L C R, Side: L R, LFE
Sampling rate : 48.0 KHz
Bit depth : 16 bits
Compression mode : Lossy
Stream size : 412 MiB (9%)
Title : 5.1 @ 448 kbps
Language : English
Default : No
Forced : No
Скріншоти



Парк Юрського періоду 3 / Jurassic Park III (2001) 720p 3xUkr/Eng
Парк Юрського періоду 3 / Jurassic Park III (2001) 720p 3xUkr/Eng



Країна: США



Кінокомпанія: Universal Pictures
Режисер: Джо Джонстон
Актори: Сем Нейл, Вільям Ха Мейсі, Теа Леоні, Алессандро Нівола, Тревор Морган, Майкл Джетер, Лора Дерм

Сюжет:
Палеонтолог Алан Грант, приймає пропозицію багатого підприємця здійснити оглядову екскурсію над вже знайомим островом Сорна на спеціально найнятому літаку. Чи міг доктор Грант передбачити, що страшна, непередбачена катастрофа знову змусить його зіткнутися із жорстокими м'ясоїдними істотами з минулого?!


Тривалість: 01:32:21
Якість:
Відео:
кодек:
розмір кадру: 1280x688
бітрейт: 4206 кб/с

Аудіо # 1:
мова: українська
переклад: багатоголосий закадровий УКРАЇНА
кодек: 2.0
бітрейт: 192 кб/с

Аудіо # 2:
мова: українська
переклад: двоголосий закадровий НОВИЙ КАНАЛ
кодек: 2.0
бітрейт: 192 кб/с

Аудіо # 3:
мова: українська
переклад: двоголосий закадровий 1+1, ICTV
кодек: 2.0
бітрейт: 192 кб/с

Аудіо # 4:
мова: англійська
переклад: оригінал
кодек: 5.1
бітрейт: 448 кб/с
Info
General
Unique ID : 210883058886185015486116146941181757382 (0x9EA6998BA8E2BA288289FAE3AF1B07C6)
Complete name : E:\Jurassic Park Trilogy\Jurassic.Park.III.2001..720p.
Format :
Format version : Version 4 / Version 2
File size : 3.37 GiB
Duration : 1h 32mn
Overall bit rate : 5 231 Kbps
Encoded date : UTC 2017-05-31 15:21:56
Writing application : mkvmerge v8.8.0 ('Wind at my back') 64bit
Writing library : libebml v1.3.3 + libmatroska v1.4.4
DURATION : 01:32:12.128000000
NUMBER_OF_FRAMES : 172879
NUMBER_OF_BYTES : 132771072
_STATISTICS_WRITING_APP : mkvmerge v8.8.0 ('Wind at my back') 64bit
_STATISTICS_WRITING_DATE_UTC : 2017-05-31 15:21:56
_STATISTICS_TAGS : BPS DURATION NUMBER_OF_FRAMES NUMBER_OF_BYTES

Video
ID : 1
Format : AVC
Format/Info : Advanced Video Codec
Format profile : [email protected]
Format settings, CABAC : Yes
Format settings, ReFrames : 6 frames
Codec ID : V_MPEG4/ISO/AVC
Duration : 1h 32mn
Bit rate : 4 206 Kbps
Width : 1 280 pixels
Height : 688 pixels
Display aspect ratio : 1.85:1
Frame rate mode : Constant
Frame rate : 23.976 fps
Color space : YUV
Chroma subsampling : 4:2:0
Bit depth : 8 bits
Scan type : Progressive
Bits/(Pixel*Frame) : 0.199
Stream size : 2.65 GiB (78%)
Title : Jurassic Park 3 By 3Li
Writing library : core 116 r2074 2641b9e
Encoding settings : cabac=1 / ref=6 / deblock=1:-3:-3 / analyse=0x3:0x113 / me=umh / subme=9 / psy=1 / psy_rd=0.60:0.00 / mixed_ref=1 / me_range=32 / chroma_me=1 / trellis=1 / 8x8dct=1 / cqm=0 / deadzone=21,11 / fast_pskip=0 / chroma_qp_offset=-2 / threads=3 / sliced_threads=0 / nr=0 / decimate=0 / interlaced=0 / bluray_compat=0 / constrained_intra=0 / bframes=3 / b_pyramid=2 / b_adapt=2 / b_bias=0 / direct=1 / weightb=1 / open_gop=0 / weightp=2 / keyint=250 / keyint_min=23 / scenecut=40 / intra_refresh=0 / rc_lookahead=40 / rc=2pass / mbtree=1 / bitrate=4206 / ratetol=1.0 / qcomp=0.60 / qpmin=10 / qpmax=51 / qpstep=4 / cplxblur=20.0 / qblur=0.5 / ip_ratio=1.40 / aq=1:1.00
Language : English
Default : Yes
Forced : No

Audio #1
ID : 2
Format : AC-3
Format/Info : Audio Coding 3
Mode extension : CM (complete main)
Format settings, Endianness : Big
Codec ID : A_AC3
Duration : 1h 32mn
Bit rate mode : Constant
Bit rate : 192 Kbps
Channel(s) : 2 channels
Channel positions : Front: L R
Sampling rate : 48.0 KHz
Bit depth : 16 bits
Compression mode : Lossy
Stream size : 127 MiB (4%)
Default : Yes
Forced : Yes

Audio #2
ID : 3
Format : AC-3
Format/Info : Audio Coding 3
Mode extension : CM (complete main)
Format settings, Endianness : Big
Codec ID : A_AC3
Duration : 1h 32mn
Bit rate mode : Constant
Bit rate : 192 Kbps
Channel(s) : 2 channels
Channel positions : Front: L R
Sampling rate : 48.0 KHz
Bit depth : 16 bits
Compression mode : Lossy
Stream size : 127 MiB (4%)
Default : No
Forced : No

Audio #3
ID : 4
Format : AC-3
Format/Info : Audio Coding 3
Mode extension : CM (complete main)
Format settings, Endianness : Big
Codec ID : A_AC3
Duration : 1h 32mn
Bit rate mode : Constant
Bit rate : 192 Kbps
Channel(s) : 2 channels
Channel positions : Front: L R
Sampling rate : 48.0 KHz
Bit depth : 16 bits
Compression mode : Lossy
Stream size : 127 MiB (4%)
Default : No
Forced : No

Audio #4
ID : 5
Format : AC-3
Format/Info : Audio Coding 3
Mode extension : CM (complete main)
Format settings, Endianness : Big
Codec ID : A_AC3
Duration : 1h 32mn
Bit rate mode : Constant
Bit rate : 448 Kbps
Channel(s) : 6 channels
Channel positions : Front: L C R, Side: L R, LFE
Sampling rate : 48.0 KHz
Bit depth : 16 bits
Compression mode : Lossy
Stream size : 296 MiB (9%)
Title : 5.1 @ 448 kbps
Language : English
Default : No
Forced : No
Скріншоти




Створення Парку юрського періоду / The Making of 'Jurassic Park' (1995)
Створення Парку юрського періоду / The Making of 'Jurassic Park' (1995)





Кінокомпанія: Amblin Entertainment
Режисер: Джон Шульц
Актори: Джеймс Ерл Джонс, Стівен Спілберг, Майкл Крайтон

Сюжет:
Фільм про створення фільму "Парк юрського періоду"


Тривалість: 00:44:35
Якість:
Відео:
кодек: DivX 5.x
розмір кадру: 720 х 576
бітрейт: 1750 кб/с

Аудіо:
мова: українська
переклад: багатоголосий закадровий
кодек: MP3
бітрейт: 192 кб/с
Скріншоти
[/url]

Джерело озвучення:
Подяки: За українські доріжки - п. _oles, boltendahl, xslim, MAKAPOHHIK, NemoInFire, РОМЕО, Sando7, ProgBassing; за зведення Arsenfpu, за постери - bober-mober, hellforces.



Срібний реліз (на рейтинг впливає 50% завантаженого)
 Трекер:    Зареєстрований   

Завантажити / скачати фільм українською



відео для новачків



 Зареєстрований:   2017-07-31 17:13
 Розмір:   13.23 GB 
 Оцінка фільму:   5.4/10 (Голосів: 20)
   
Pegass 
VIP


З нами з: 17.12.09
Востаннє: 22.08.17
Повідомлень: 516

2017-07-31 20:09  
Anonymous написано:

Аудіо # 2:
мова: українська
переклад: двоголосий закадровий 1+1, ICTV, УККРАЇНА

Виправіть в першому фільмі. Має бути УКРАЇНА

igor911 
Відео Гуртом
Відео Гуртом


З нами з: 18.01.08
Востаннє: 22.08.17
Повідомлень: 7317

2017-08-01 12:25  
друга частина написано:
Тривалість: 02:06:40
невірно, треба виправити
Anonymous написано:
Створення Парку юрського періоду

відсутні скріншоти

Додано через 6 хвилин 13 секунд:

також шкода, що не підписано українські доріжки в контейнері в жодному з файлів трилогії.

Додано через 2 хвилини 44 секунди:

Створення Парку юрського періоду написано:
Актори: Джеймс Ерл Джонс
треба додати хоча б ще двох-трьох акторів
Ваш часовий пояс: GMT + 2 Години

Нова тема   Відповісти