Парк Юрського періоду. Трилогія + Створення Парку юрського періоду / Jurassic Park. Trilogy + The Making of 'Jurassic Park' (1993-2001) 720p/ 3xUkr/Eng | Sub Ukr/Eng

Нові коментарі

Нова тема   Відповісти
Автор Повідомлення
Anonymous 







2017-07-31 17:13  
Парк Юрського періоду. Трилогія + Створення Парку юрського періоду / Jurassic Park. Trilogy + The Making of 'Jurassic Park' (1993-2001) 720p/ 3xUkr/Eng | Sub Ukr/Eng

Парк Юрського періоду. Трилогія + Створення Парку юрського періоду / Jurassic Park. Trilogy + The Making of 'Jurassic Park' (1993-2001) 720p/ 3xUkr/Eng | Sub Ukr/Eng


Жанр: пригодницький, фантастика, сімейний, трилер
Країна: США
Парк Юрського періоду / Jurassic Park (1993) 720p 4xUkr/Eng | Sub Ukr/Eng
Парк Юрського періоду / Jurassic Park (1993) 720p 4xUkr/Eng | Sub Ukr/Eng



Країна: США



Кінокомпанія: Universal Pictures
Режисер: Стівен Спілберг
Актори: Сем Нілл, Лора Дерн, Річард Еттенборо, Джефф Голдблюм, Боб Пек, Мартін Ферреро

Сюжет:
Професор вмовляє вчених-палеонтологів приїхати на острів біля узбережжя Коста-Ріки, де він влаштував своєрідний парк. В цьому парку водяться древні тварини — динозаври, які, за його задумом, і мають стати основою програми нового атракціону. До відкриття залишаються лічені дні, а один з працівників, намагаючись продати ембріони на стороні, порушує систему охорони. Це, в комплексі з грозою призведе до того, що доісторичні тварини опиняються на волі, де діють згідно своїх інстиктів.


Тривалість: 02:06:37
Відео:
кодек:
розмір кадру: 1280х688
бітрейт: 4188 кб/с

Аудіо # 1:
мова: українська
переклад: двоголосий закадровий | 1+1
кодек: 2.0
бітрейт: 192 кб/с

Аудіо # 2:
мова: українська
переклад: двоголосий закадровий | Новий Канал
кодек: 2.0
бітрейт: 192 кб/с

Аудіо # 3:
мова: українська
переклад: багатоголосий закадровий | Інтер
кодек: 2.0
бітрейт: 192 кб/с

Аудіо # 4:
мова: українська
переклад: професійний дубльований | MIC
кодек: 2.0
бітрейт: 192 кб/с

Аудіо # 5:
мова: англійська
переклад: оригінал
кодек: 5.1
бітрейт: 448 кб/с

Субтитри:
мова: українська
тип: програмні (м'які)
формат: *.srt
переклад:

Субтитри:
мова: англійська
тип: програмні (м'які)
формат: *.srt
Info
Video
ID : 1
Format : AVC
Format/Info : Advanced Video Codec
Format profile : [email protected]
Format settings : CABAC / 6 Ref Frames
Format settings, CABAC : Yes
Format settings, Reference : 6 frames
Codec ID : V_MPEG4/ISO/AVC
Duration : 2 h 6 min
Bit rate : 4 188 kb/s
Width : 1 280 pixels
Height : 688 pixels
Display aspect ratio : 1.85:1
Frame rate mode : Constant
Frame rate : 23.976 (24000/1001) FPS
Color space : YUV
Chroma subsampling : 4:2:0
Bit depth : 8 bits
Scan type : Progressive
Bits/(Pixel*Frame) : 0.198
Stream size : 3.70 GiB (77%)
Writing library : core 116 r2074 2641b9e
Encoding settings : cabac=1 / ref=6 / deblock=1:-3:-3 / analyse=0x3:0x113 / me=umh / subme=9 / psy=1 / psy_rd=0.60:0.00 / mixed_ref=1 / me_range=32 / chroma_me=1 / trellis=1 / 8x8dct=1 / cqm=0 / deadzone=21,11 / fast_pskip=0 / chroma_qp_offset=-2 / threads=3 / sliced_threads=0 / nr=0 / decimate=0 / interlaced=0 / bluray_compat=0 / constrained_intra=0 / bframes=3 / b_pyramid=2 / b_adapt=2 / b_bias=0 / direct=1 / weightb=1 / open_gop=0 / weightp=2 / keyint=250 / keyint_min=23 / scenecut=40 / intra_refresh=0 / rc_lookahead=40 / rc=2pass / mbtree=1 / bitrate=4188 / ratetol=1.0 / qcomp=0.60 / qpmin=10 / qpmax=51 / qpstep=4 / cplxblur=20.0 / qblur=0.5 / ip_ratio=1.40 / aq=1:1.00
Language : English
Default : Yes
Forced : No

Audio #1
ID : 2
Format : AC-3
Format/Info : Audio Coding 3
Commercial name : Dolby Digital
Codec ID : A_AC3
Duration : 2 h 6 min
Bit rate mode : Constant
Bit rate : 192 kb/s
Channel(s) : 2 channels
Channel layout : L R
Sampling rate : 48.0 kHz
Frame rate : 31.250 FPS (1536 SPF)
Compression mode : Lossy
Stream size : 174 MiB (4%)
Title : DVO - 1+1
Language : Ukrainian
Service kind : Complete Main
Default : Yes
Forced : No

Audio #2
ID : 3
Format : AC-3
Format/Info : Audio Coding 3
Commercial name : Dolby Digital
Codec ID : A_AC3
Duration : 2 h 6 min
Bit rate mode : Constant
Bit rate : 192 kb/s
Channel(s) : 2 channels
Channel layout : L R
Sampling rate : 48.0 kHz
Frame rate : 31.250 FPS (1536 SPF)
Compression mode : Lossy
Stream size : 174 MiB (4%)
Title : DVO - Новий Канал
Language : Ukrainian
Service kind : Complete Main
Default : No
Forced : No

Audio #3
ID : 4
Format : AC-3
Format/Info : Audio Coding 3
Commercial name : Dolby Digital
Codec ID : A_AC3
Duration : 2 h 6 min
Bit rate mode : Constant
Bit rate : 192 kb/s
Channel(s) : 2 channels
Channel layout : L R
Sampling rate : 48.0 kHz
Frame rate : 31.250 FPS (1536 SPF)
Compression mode : Lossy
Stream size : 174 MiB (4%)
Title : MVO - ІНТЕР
Language : Ukrainian
Service kind : Complete Main
Default : No
Forced : No

Audio #4
ID : 5
Format : MPEG Audio
Format version : Version 1
Format profile : Layer 3
Format settings : Joint stereo / MS Stereo
Codec ID : A_MPEG/L3
Codec ID/Hint : MP3
Duration : 2 h 6 min
Bit rate mode : Constant
Bit rate : 192 kb/s
Channel(s) : 2 channels
Sampling rate : 44.1 kHz
Frame rate : 38.281 FPS (1152 SPF)
Compression mode : Lossy
Stream size : 174 MiB (4%)
Title : DUB - Запис з мікрофону
Language : Ukrainian
Default : No
Forced : No

Audio #5
ID : 6
Format : AC-3
Format/Info : Audio Coding 3
Commercial name : Dolby Digital
Codec ID : A_AC3
Duration : 2 h 6 min
Bit rate mode : Constant
Bit rate : 448 kb/s
Channel(s) : 6 channels
Channel layout : L R C LFE Ls Rs
Sampling rate : 48.0 kHz
Frame rate : 31.250 FPS (1536 SPF)
Compression mode : Lossy
Stream size : 406 MiB (8%)
Language : English
Service kind : Complete Main
Default : No
Forced : No

Text #1
ID : 7
Format : UTF-8
Codec ID : S_TEXT/UTF8
Codec ID/Info : UTF-8 Plain Text
Duration : 2 h 5 min
Bit rate : 82 b/s
Count of elements : 1370
Stream size : 75.8 KiB (0%)
Title : Netflix
Language : Ukrainian
Default : No
Forced : No

Text #2
ID : 8
Format : UTF-8
Codec ID : S_TEXT/UTF8
Codec ID/Info : UTF-8 Plain Text
Duration : 1 h 57 min
Bit rate : 48 b/s
Count of elements : 1217
Stream size : 41.3 KiB (0%)
Language : English
Default : No
Forced : No
Скріншоти



Парк Юрського періоду 2. Загублений світ / The Lost World: Jurassic Park (1997) 3xUkr/Eng | Sub Ukr/Eng
Парк Юрського періоду 2. Загублений світ / The Lost World: Jurassic Park (1997) 3xUkr/Eng | Sub Ukr/Eng



Країна: США



Кінокомпанія: Universal Pictures
Режисер: Стівен Спілберг
Актори: Джеф Ґолдблюм, Джуліана Мур, Вінс Воун, Пете Постлетвейт, Ванеса Лі Честер, Арліс Говард, Річард Аттенборо

Сюжет:
Події цієї стрічки розгортаються через чотири роки після подій перщої частини. На острові Isla Sorna, що знаходився біля Isla Nublar, динозаври вижили й звісно ж знайшлася людина, яка мала плани щодо перевезення динозаврів на материк, і не усвідомлювала наслідків безглуздого задуму...


Тривалість: 02:08:40
Якість:
Відео:
кодек:
розмір кадру: 1280x688
бітрейт: 4110 кб/с

Аудіо # 1:
мова: українська
переклад: двоголосий закадровий | 1+1
кодек: 2.0
бітрейт: 192 кб/с

Аудіо # 2:
мова: українська
переклад: двоголосий закадровий | Новий Канал
кодек: 2.0
бітрейт: 192 кб/с

Аудіо # 3:
мова: українська
переклад: багатоголосий закадровий | Україна
кодек: 2.0
бітрейт: 192 кб/с

Аудіо # 4:
мова: англійська
переклад: оригінал
кодек: 5.1
бітрейт: 448 кб/с

Субтитри:
мова: українська
тип: програмні (м'які)
формат: *.srt
переклад:

Субтитри:
мова: англійська
тип: програмні (м'які)
формат: *.srt
Info
Video
ID : 1
Format : AVC
Format/Info : Advanced Video Codec
Format profile : [email protected]
Format settings : CABAC / 6 Ref Frames
Format settings, CABAC : Yes
Format settings, Reference : 6 frames
Codec ID : V_MPEG4/ISO/AVC
Duration : 2 h 8 min
Bit rate : 4 110 kb/s
Width : 1 280 pixels
Height : 688 pixels
Display aspect ratio : 1.85:1
Frame rate mode : Constant
Frame rate : 23.976 (24000/1001) FPS
Color space : YUV
Chroma subsampling : 4:2:0
Bit depth : 8 bits
Scan type : Progressive
Bits/(Pixel*Frame) : 0.195
Stream size : 3.69 GiB (80%)
Writing library : core 116 r2074 2641b9e
Encoding settings : cabac=1 / ref=6 / deblock=1:-3:-3 / analyse=0x3:0x113 / me=umh / subme=9 / psy=1 / psy_rd=0.80:0.00 / mixed_ref=1 / me_range=32 / chroma_me=1 / trellis=1 / 8x8dct=1 / cqm=0 / deadzone=21,11 / fast_pskip=0 / chroma_qp_offset=-2 / threads=3 / sliced_threads=0 / nr=0 / decimate=0 / interlaced=0 / bluray_compat=0 / constrained_intra=0 / bframes=3 / b_pyramid=2 / b_adapt=2 / b_bias=0 / direct=1 / weightb=1 / open_gop=0 / weightp=2 / keyint=250 / keyint_min=23 / scenecut=40 / intra_refresh=0 / rc_lookahead=40 / rc=2pass / mbtree=1 / bitrate=4110 / ratetol=1.0 / qcomp=0.60 / qpmin=10 / qpmax=51 / qpstep=4 / cplxblur=20.0 / qblur=0.5 / ip_ratio=1.40 / aq=1:1.00
Language : English
Default : Yes
Forced : No

Audio #1
ID : 2
Format : AC-3
Format/Info : Audio Coding 3
Commercial name : Dolby Digital
Codec ID : A_AC3
Duration : 2 h 8 min
Bit rate mode : Constant
Bit rate : 192 kb/s
Channel(s) : 2 channels
Channel layout : L R
Sampling rate : 48.0 kHz
Frame rate : 31.250 FPS (1536 SPF)
Compression mode : Lossy
Stream size : 177 MiB (4%)
Title : DVO - 1+1
Language : Ukrainian
Service kind : Complete Main
Default : Yes
Forced : No

Audio #2
ID : 3
Format : AC-3
Format/Info : Audio Coding 3
Commercial name : Dolby Digital
Codec ID : A_AC3
Duration : 2 h 8 min
Bit rate mode : Constant
Bit rate : 192 kb/s
Channel(s) : 2 channels
Channel layout : L R
Sampling rate : 48.0 kHz
Frame rate : 31.250 FPS (1536 SPF)
Compression mode : Lossy
Stream size : 177 MiB (4%)
Title : DVO - Новий Канал
Language : Ukrainian
Service kind : Complete Main
Default : No
Forced : No

Audio #3
ID : 4
Format : AC-3
Format/Info : Audio Coding 3
Commercial name : Dolby Digital
Codec ID : A_AC3
Duration : 2 h 8 min
Bit rate mode : Constant
Bit rate : 192 kb/s
Channel(s) : 2 channels
Channel layout : L R
Sampling rate : 48.0 kHz
Frame rate : 31.250 FPS (1536 SPF)
Compression mode : Lossy
Stream size : 177 MiB (4%)
Title : MVO - Україна
Language : Ukrainian
Service kind : Complete Main
Default : No
Forced : No

Audio #4
ID : 5
Format : AC-3
Format/Info : Audio Coding 3
Commercial name : Dolby Digital
Codec ID : A_AC3
Duration : 2 h 8 min
Bit rate mode : Constant
Bit rate : 448 kb/s
Channel(s) : 6 channels
Channel layout : L R C LFE Ls Rs
Sampling rate : 48.0 kHz
Frame rate : 31.250 FPS (1536 SPF)
Compression mode : Lossy
Stream size : 412 MiB (9%)
Language : English
Service kind : Complete Main
Default : No
Forced : No

Text #1
ID : 6
Format : UTF-8
Codec ID : S_TEXT/UTF8
Codec ID/Info : UTF-8 Plain Text
Duration : 2 h 7 min
Bit rate : 75 b/s
Count of elements : 1261
Stream size : 70.4 KiB (0%)
Title : Netflix
Language : Ukrainian
Default : No
Forced : No

Text #2
ID : 7
Format : UTF-8
Codec ID : S_TEXT/UTF8
Codec ID/Info : UTF-8 Plain Text
Duration : 1 h 59 min
Bit rate : 44 b/s
Count of elements : 1201
Stream size : 38.8 KiB (0%)
Language : English
Default : No
Forced : No
Скріншоти



Парк Юрського періоду 3 / Jurassic Park III (2001) 720p 3xUkr/Eng | Sub Ukr/Eng
Парк Юрського періоду 3 / Jurassic Park III (2001) 720p 3xUkr/Eng | Sub Ukr/Eng



Країна: США



Кінокомпанія: Universal Pictures
Режисер: Джо Джонстон
Актори: Сем Нейл, Вільям Ха Мейсі, Теа Леоні, Алессандро Нівола, Тревор Морган, Майкл Джетер, Лора Дерм

Сюжет:
Палеонтолог Алан Грант, приймає пропозицію багатого підприємця здійснити оглядову екскурсію над вже знайомим островом Сорна на спеціально найнятому літаку. Чи міг доктор Грант передбачити, що страшна, непередбачена катастрофа знову змусить його зіткнутися із жорстокими м'ясоїдними істотами з минулого?!


Тривалість: 01:32:21
Якість:
Відео:
кодек:
розмір кадру: 1280x688
бітрейт: 4206 кб/с

Аудіо # 1:
мова: українська
переклад: двоголосий закадровий | 1+1
кодек: 2.0
бітрейт: 192 кб/с

Аудіо # 2:
мова: українська
переклад: двоголосий закадровий | Новий Канал
кодек: 2.0
бітрейт: 192 кб/с

Аудіо # 3:
мова: українська
переклад: багатоголосий закадровий | Україна
кодек: 2.0
бітрейт: 192 кб/с

Аудіо # 4:
мова: англійська
переклад: оригінал
кодек: 5.1
бітрейт: 448 кб/с

Субтитри:
мова: українська
тип: програмні (м'які)
формат: *.srt
переклад:

Субтитри:
мова: англійська
тип: програмні (м'які)
формат: *.srt
Info
Video
ID : 1
Format : AVC
Format/Info : Advanced Video Codec
Format profile : [email protected]
Format settings : CABAC / 6 Ref Frames
Format settings, CABAC : Yes
Format settings, Reference : 6 frames
Codec ID : V_MPEG4/ISO/AVC
Duration : 1 h 32 min
Bit rate : 4 206 kb/s
Width : 1 280 pixels
Height : 688 pixels
Display aspect ratio : 1.85:1
Frame rate mode : Constant
Frame rate : 23.976 (24000/1001) FPS
Color space : YUV
Chroma subsampling : 4:2:0
Bit depth : 8 bits
Scan type : Progressive
Bits/(Pixel*Frame) : 0.199
Stream size : 2.71 GiB (80%)
Writing library : core 116 r2074 2641b9e
Encoding settings : cabac=1 / ref=6 / deblock=1:-3:-3 / analyse=0x3:0x113 / me=umh / subme=9 / psy=1 / psy_rd=0.60:0.00 / mixed_ref=1 / me_range=32 / chroma_me=1 / trellis=1 / 8x8dct=1 / cqm=0 / deadzone=21,11 / fast_pskip=0 / chroma_qp_offset=-2 / threads=3 / sliced_threads=0 / nr=0 / decimate=0 / interlaced=0 / bluray_compat=0 / constrained_intra=0 / bframes=3 / b_pyramid=2 / b_adapt=2 / b_bias=0 / direct=1 / weightb=1 / open_gop=0 / weightp=2 / keyint=250 / keyint_min=23 / scenecut=40 / intra_refresh=0 / rc_lookahead=40 / rc=2pass / mbtree=1 / bitrate=4206 / ratetol=1.0 / qcomp=0.60 / qpmin=10 / qpmax=51 / qpstep=4 / cplxblur=20.0 / qblur=0.5 / ip_ratio=1.40 / aq=1:1.00
Language : English
Default : Yes
Forced : No

Audio #1
ID : 2
Format : AC-3
Format/Info : Audio Coding 3
Commercial name : Dolby Digital
Codec ID : A_AC3
Duration : 1 h 32 min
Bit rate mode : Constant
Bit rate : 192 kb/s
Channel(s) : 2 channels
Channel layout : L R
Sampling rate : 48.0 kHz
Frame rate : 31.250 FPS (1536 SPF)
Compression mode : Lossy
Stream size : 127 MiB (4%)
Title : DVO - 1+1
Language : Ukrainian
Service kind : Complete Main
Default : Yes
Forced : No

Audio #2
ID : 3
Format : AC-3
Format/Info : Audio Coding 3
Commercial name : Dolby Digital
Codec ID : A_AC3
Duration : 1 h 32 min
Bit rate mode : Constant
Bit rate : 192 kb/s
Channel(s) : 2 channels
Channel layout : L R
Sampling rate : 48.0 kHz
Frame rate : 31.250 FPS (1536 SPF)
Compression mode : Lossy
Stream size : 127 MiB (4%)
Title : DVO - Новий Канал
Language : Ukrainian
Service kind : Complete Main
Default : No
Forced : No

Audio #3
ID : 4
Format : AC-3
Format/Info : Audio Coding 3
Commercial name : Dolby Digital
Codec ID : A_AC3
Duration : 1 h 32 min
Bit rate mode : Constant
Bit rate : 192 kb/s
Channel(s) : 2 channels
Channel layout : L R
Sampling rate : 48.0 kHz
Frame rate : 31.250 FPS (1536 SPF)
Compression mode : Lossy
Stream size : 127 MiB (4%)
Title : MVO - Україна
Language : Ukrainian
Service kind : Complete Main
Default : No
Forced : No

Audio #4
ID : 5
Format : AC-3
Format/Info : Audio Coding 3
Commercial name : Dolby Digital
Codec ID : A_AC3
Duration : 1 h 32 min
Bit rate mode : Constant
Bit rate : 448 kb/s
Channel(s) : 6 channels
Channel layout : L R C LFE Ls Rs
Sampling rate : 48.0 kHz
Frame rate : 31.250 FPS (1536 SPF)
Compression mode : Lossy
Stream size : 296 MiB (9%)
Language : English
Service kind : Complete Main
Default : No
Forced : No

Text #1
ID : 6
Format : UTF-8
Codec ID : S_TEXT/UTF8
Codec ID/Info : UTF-8 Plain Text
Duration : 1 h 30 min
Bit rate : 62 b/s
Count of elements : 893
Stream size : 41.8 KiB (0%)
Title : Netflix
Language : Ukrainian
Default : No
Forced : No

Text #2
ID : 7
Format : UTF-8
Codec ID : S_TEXT/UTF8
Codec ID/Info : UTF-8 Plain Text
Duration : 1 h 22 min
Bit rate : 40 b/s
Count of elements : 799
Stream size : 24.3 KiB (0%)
Language : English
Default : No
Forced : No
Скріншоти




Створення Парку юрського періоду / The Making of 'Jurassic Park' (1995)
Створення Парку юрського періоду / The Making of 'Jurassic Park' (1995)





Кінокомпанія: Amblin Entertainment
Режисер: Джон Шульц
Актори: Джеймс Ерл Джонс, Стівен Спілберг, Майкл Крайтон

Сюжет:
Фільм про створення фільму "Парк юрського періоду"


Тривалість: 00:44:35
Якість:
Відео:
кодек: DivX 5.x
розмір кадру: 720 х 576
бітрейт: 1750 кб/с

Аудіо:
мова: українська
переклад: багатоголосий закадровий
кодек: MP3
бітрейт: 192 кб/с
Скріншоти
[/url]

Джерело озвучення:
Подяки: За українські доріжки - п. _oles, boltendahl, xslim, MAKAPOHHIK, NemoInFire, РОМЕО, Sando7, ProgBassing; за зведення Arsenfpu, за постери - bober-mober, hellforces.



Срібний реліз (на рейтинг впливає 50% завантаженого)
 Трекер:    Зареєстрований   

Завантажити / скачати фільм українською



відео для новачків



 Зареєстрований:   2020-04-17 18:10
 Розмір:   13.4 GB 
 Оцінка фільму:   7.9/10 (Голосів: 45)
   
Pegass 
VIP


З нами з: 17.12.09
Востаннє: 21.09.20
Повідомлень: 1110

2017-07-31 20:09  
Anonymous написано:

Аудіо # 2:
мова: українська
переклад: двоголосий закадровий 1+1, ICTV, УККРАЇНА

Виправіть в першому фільмі. Має бути УКРАЇНА

igor911 
Модератор відео


З нами з: 18.01.08
Востаннє: 22.09.20
Повідомлень: 15000

2017-08-01 12:25  
друга частина написано:
Тривалість: 02:06:40
невірно, треба виправити
Anonymous написано:
Створення Парку юрського періоду

відсутні скріншоти

Додано через 6 хвилин 13 секунд:

також шкода, що не підписано українські доріжки в контейнері в жодному з файлів трилогії.

Додано через 2 хвилини 44 секунди:

Створення Парку юрського періоду написано:
Актори: Джеймс Ерл Джонс
треба додати хоча б ще двох-трьох акторів
boombyte 
Поважний учасник


З нами з: 12.04.14
Востаннє: 20.09.20
Повідомлень: 157

2019-03-23 16:31  
Це були 90ті--коли декорації у фільмах були реальними. Ех...
Anonymous 







2020-04-17 18:13  
Оновлення : 17.04.20

1. Зміна послідовності доріжок (1+1, Новий Канал, Інтер/Україна)
2. Додано український дубляж до першої частини
3. Додано українські субтитри з нетфлікс і англійські з блюрею.
4. Додані українські постери у контейнер .

Ваш часовий пояс: GMT + 2 Години

Нова тема   Відповісти