Доктор Хаус (Сезон 3) / House M.D. (Season 3) (2006-2007) 1080p Ukr/Eng | Sub Eng

Нові коментарі

Нова тема   Відповісти
Автор Повідомлення
Anonymous 







2017-07-30 17:39  

720p: S01 | S02 | S03 | S04 | S05 | S06 | S07 | S08 + Лебедина пісня / Swan song



Доктор Хаус (Сезон 3) / House M.D. (Season 3) (2006-2007) 1080p Ukr/Eng | Sub Eng

Доктор Хаус (Сезон 3) / House M.D. (Season 3) (2006-2007) 1080p Ukr/Eng | Sub Eng


Альтернативні постери





Жанр: драма, детектив, комедія
Країна: США



Кінокомпанія: NBC Universal Television Studio / FOX
Режисер: Браян Сінгер
Автор ідеї: Девід Шор
Актори: Г'ю Лорі, Роберт Шон Леонард, Омар Еппс, Джессі Спенсер, Дженніфер Моррісон та інші

Сюжет:
Доктор Хаус — блискучий фахівець у галузі захворювань нирок (нефрологія) і інфекційних хвороб, але через деякі особливості його характеру його не можна назвати улюбленцем пацієнтів і колег — він замкнутий, різкий і цинічний, схильний до мізантропії й бунтарства. Він не обтяжує себе дотриманням правил гарного тону й часом здається, що він повністю позбавлений почуття жалю (що, однак, невірно). Найкраще говорить про життєву позицію Хауса цитата доктора Формана: «Він не порушує правила, він їх ігнорує»; а також його улюблене твердження — «Усі брешуть». Як не дивно, саме цей підхід нерідко допомагає йому розібратися у найскладніших і неймовірних випадках, а значить урятувати життя ще одному пацієнтові.


Тривалість: 1 серія: ~44 хв. (цілком серій: 24)
Перелік серій

House M.D. Season 3, Episode 01. Meaning | «Визнання»
House M.D. Season 3, Episode 02. Cane and Able | «Каїн і Авель»
House M.D. Season 3, Episode 03. Informed Consent | «Офіційна згода»
House M.D. Season 3, Episode 04. Lines in the Sand | «Лінії на піску»
House M.D. Season 3, Episode 05. Fools for Love | «Кохання всього його життя»
House M.D. Season 3, Episode 06. Que Sera Sera | «Будь, що буде»
House M.D. Season 3, Episode 07. Son of Coma Guy | «Син коматозника»
House M.D. Season 3, Episode 08. Whac-A-Mole | Whac-A-Mole
House M.D. Season 3, Episode 09. Finding Judas | «У пошуках Іуди»
House M.D. Season 3, Episode 10. Merry Little Christmas | «Крихітне веселе Різдво»
House M.D. Season 3, Episode 11. Words and Deeds | «Слова і справи»
House M.D. Season 3, Episode 12. One Day, One Room | «Один день, одна кімната»
House M.D. Season 3, Episode 13. Needle in a Haystack | «Голка в стозі сіна»
House M.D. Season 3, Episode 14. Insensitive | «Бездушність»
House M.D. Season 3, Episode 15. Half-Wit | «Недоумкуватий»
House M.D. Season 3, Episode 16. Top Secret | «Абсолютно таємно»
House M.D. Season 3, Episode 17. Fetal Position | «Положення плоду»
House M.D. Season 3, Episode 18. Airborne | «В повітрі»
House M.D. Season 3, Episode 19. Act Your Age | «Поводься по-дорослому»
House M.D. Season 3, Episode 20. House Training | «Навчання Хауса»
House M.D. Season 3, Episode 21. Family | «Сім'я»
House M.D. Season 3, Episode 22. Resignation | «Звільнення»
House M.D. Season 3, Episode 23. The Jerk | «Шмаркач»
House M.D. Season 3, Episode 24. Human Error | «Людська помилка»
Якість: 1080p
Відео:
кодек:
розмір кадру: 1920 х 1080
бітрейт: 9 982 кб/с

Аудіо # 1: /
мова: українська
переклад: багатоголосий закадровий
кодек: 2.0
бітрейт: 192 кб/с
Доріжки окремо: (завантажити)

Аудіо # 2:
мова: англійська
переклад: оригінал
кодек: 5.1
бітрейт: 768 кб/с

Субтитри # 1: (SDH)
мова: англійська
тип: програмні (м'які)
формат: *.srt

Субтитри # 2:
мова: англійська
тип: програмні (м'які)
формат: *.srt
Info

General
Unique ID : 233962114844671109553636625074857916964 (0xB00376DB42B8DB93870F2590B2273A24)
Format :
Format version : Version 4 / Version 2
File size : 3.34 GiB
Duration : 43 min 37 s
Overall bit rate : 10.9 Mb/s
Encoded date : UTC 2017-07-30 17:16:33
Writing application : v6.1.0 ('Old Devil') built on Mar 2 2013 14:32:37
Writing library : libebml v1.3.0 + v1.4.0
Cover : Yes
Attachments : Cover.jpg

Video
ID : 1
Format : AVC
Format/Info : Advanced Video Codec
Format profile : [email protected]
Format settings, CABAC : Yes
Format settings, ReFrames : 4 frames
Codec ID : V_MPEG4/ISO/AVC
Duration : 43 min 37 s
Bit rate : 9 982 kb/s
Width : 1 920 pixels
Height : 1 080 pixels
Display aspect ratio : 16:9
Frame rate mode : Constant
Frame rate : 23.976 (24000/1001) FPS
Color space : YUV
Chroma subsampling : 4:2:0
Bit depth : 8 bits
Scan type : Progressive
Bits/(Pixel*Frame) : 0.201
Stream size : 2.98 GiB (89%)
Title : House M.D. S03.E01 (2006) 1080p [Ukr.Eng Sub.Eng] [Hurtom]
Writing library : core 142 r2409 d6b4e63
Encoding settings : cabac=1 / ref=4 / deblock=1:-2:-2 / analyse=0x3:0x113 / me=umh / subme=8 / psy=1 / psy_rd=1.00:0.00 / mixed_ref=1 / me_range=16 / chroma_me=1 / trellis=1 / 8x8dct=1 / cqm=0 / deadzone=21,11 / fast_pskip=1 / chroma_qp_offset=-2 / threads=12 / lookahead_threads=2 / sliced_threads=0 / nr=0 / decimate=1 / interlaced=0 / bluray_compat=0 / constrained_intra=0 / bframes=3 / b_pyramid=2 / b_adapt=2 / b_bias=0 / direct=3 / weightb=1 / open_gop=0 / weightp=2 / keyint=240 / keyint_min=24 / scenecut=40 / intra_refresh=0 / rc_lookahead=50 / rc=2pass / mbtree=1 / bitrate=9982 / ratetol=1.0 / qcomp=0.60 / qpmin=0 / qpmax=69 / qpstep=4 / cplxblur=20.0 / qblur=0.5 / ip_ratio=1.40 / aq=1:1.00
Language : English
Default : Yes
Forced : No

Audio #1
ID : 2
Format : AC-3
Format/Info : Audio Coding 3
Format settings, Endianness : Big
Codec ID : A_AC3
Duration : 43 min 37 s
Bit rate mode : Constant
Bit rate : 192 kb/s
Channel(s) : 2 channels
Channel positions : Front: L R
Sampling rate : 48.0 kHz
Frame rate : 31.250 FPS (1536 spf)
Bit depth : 16 bits
Compression mode : Lossy
Stream size : 59.9 MiB (2%)
Title : MVO | STB/K1 | 2.0 | 192 kbps
Language : Ukrainian
Service kind : Complete Main
Default : Yes
Forced : No

Audio #2
ID : 3
Format :
Format/Info : Digital Theater Systems
Mode : 16
Format settings, Endianness : Big
Codec ID : A_DTS
Duration : 43 min 37 s
Bit rate mode : Constant
Bit rate : 768 kb/s
Channel(s) : 6 channels
Channel positions : Front: L C R, Side: L R, LFE
Sampling rate : 48.0 kHz
Frame rate : 93.750 FPS (512 spf)
Bit depth : 24 bits
Compression mode : Lossy
Stream size : 240 MiB (7%)
Title : Original
Language : English
Default : No
Forced : No

Text #1
ID : 4
Format : UTF-8
Codec ID : S_TEXT/UTF8
Codec ID/Info : UTF-8 Plain Text
Title : Original | SDH
Language : English
Default : No
Forced : No

Text #2
ID : 5
Format : UTF-8
Codec ID : S_TEXT/UTF8
Codec ID/Info : UTF-8 Plain Text
Title : Original
Language : English
Default : No
Forced : No

Menu
00:00:00.000 : en:00:00:00.000
00:02:02.039 : en:00:02:02.039
00:11:09.794 : en:00:11:09.794
00:20:54.378 : en:00:20:54.378
00:29:26.807 : en:00:29:26.807
00:42:56.157 : en:00:42:56.157
Скріншоти
























Джерело:
Подяки:
slavik_v_z за запис звуку з К1
krigg070 за синхронізацію під та опис.
-_-B_E_N_D_E_R-_- за постери.
Особиста оцінка: 10 - без зайвих вагань рекомендую всім!

Не забуваємо дякувати!


Золотий реліз (завантажене не впливає на рейтинг)
 Трекер:    Зареєстрований   

Завантажити / скачати серіал українською



відео для новачків



 Зареєстрований:   2017-08-01 20:46
 Розмір:   78.79 GB 
 Оцінка серіалу:   9.9/10 (Голосів: 33)
   
bot 
робот


З нами з: 30.09.07
Востаннє: 26.05.05
Повідомлень: 26471

2017-07-30 17:41  
Тему перенесено з Серіали в HD до форуму Анонси релізів


Pegass

-_-B_E_N_D_E_R-_- 
Забанено
Забанено


З нами з: 09.01.14
Востаннє: 22.05.18
Повідомлень: 896

2017-07-31 01:02  


Додано через 20 хвилин 56 секунд:


Anonymous 







2017-07-31 02:31  
-_-B_E_N_D_E_R-_-
Дякую))

Додано через 1 годину 2 хвилини 41 секунду:

Який постер поставити головним?
Із написом: ХАУС м.д.
Чи: ХАУС доктор

Постери знаходяться трохи вище.

-_-B_E_N_D_E_R-_- 
Забанено
Забанено


З нами з: 09.01.14
Востаннє: 22.05.18
Повідомлень: 896

2017-07-31 15:32  
Гадаю
Цитата:
ХАУС доктор
буде краще
Комбат1995 
Поважний учасник


З нами з: 09.01.16
Востаннє: 05.12.20
Повідомлень: 162

2017-07-31 21:52  
Фільм "Параноя" (2013) взагалі в реальності не озвучували?
bot 
робот


З нами з: 30.09.07
Востаннє: 26.05.05
Повідомлень: 26471

2017-08-01 20:46  
Тему перенесено з Анонси релізів до форуму Серіали в HD


Pegass

Anubys 
VIP


З нами з: 09.11.09
Востаннє: 05.12.20
Повідомлень: 365

2017-08-09 00:26  
Величезне тобі дякую....з мене підтримка)
kolinos4 
Новенький


З нами з: 28.09.09
Востаннє: 03.12.20
Повідомлень: 6

2017-12-16 01:45  
В принципі завжди слухаю мовою оригіналу, але часом, коли цікаво, то переключаю на українську. На жаль, мушу сказати, що український переклад - лайно... Випадає із серіалу не лише неповвтороний гумор та стиль, але і суттєве наповнення... Не знаю, як інші сезони, але 3-й точно поганенько озвучений українською...
-_-B_E_N_D_E_R-_- 
Забанено
Забанено


З нами з: 09.01.14
Востаннє: 22.05.18
Повідомлень: 896

2017-12-20 11:02  
Комбат1995 написано:
ільм "Параноя" (2013) взагалі в реальності не озвучували?

https://toloka.to/t85942#952868

Valera_Ventor 
Свій


З нами з: 15.12.12
Востаннє: 05.12.20
Повідомлень: 55

2018-01-23 17:34  
Невже нема якіснішої доріжки СТБ? 1 і 4 сезони супер, а тут тональність надто занижена.
Ваш часовий пояс: GMT + 2 Години

Нова тема   Відповісти